<?xml version="1.0" standalone="no"?>
<!DOCTYPE svg PUBLIC "-//W3C//DTD SVG 1.1//EN" "http://www.w3.org/Graphics/SVG/1.1/DTD/svg11.dtd" >
<svg xmlns="http://www.w3.org/2000/svg" xmlns:xlink="http://www.w3.org/1999/xlink" version="1.1">
<metadata>
Created by FontForge 20190801 at Fri Apr 24 06:32:00 2020
 By www-data
Typeface (c) (your company). 2020. All Rights Reserved
</metadata>
<defs>
<font id="AkiraSuperBold" horiz-adv-x="1613" >
  <font-face 
    font-family="AkiraSuperBold"
    font-weight="800"
    font-stretch="expanded"
    units-per-em="2048"
    panose-1="2 0 8 0 0 0 0 0 0 0"
    ascent="1638"
    descent="-410"
    x-height="1343"
    cap-height="1345"
    bbox="-177 -525 4806 2033"
    underline-thickness="150"
    underline-position="-292"
    unicode-range="U+001D-2265"
  />
<missing-glyph horiz-adv-x="864" 
d="M20 0v1434h824v-1434h-824zM70 50h724v1334h-724v-1334zM220 1143q34 31 63 47q62 35 132 35q107 0 168 -52t61 -129q0 -47 -22.5 -96t-87.5 -129q-62 -79 -98.5 -131.5t-36.5 -103.5q0 -38 26 -138h-82q-38 105 -38 154q0 73 81.5 215t81.5 219q0 61 -28 89t-70 28
q-28 0 -50 -12q-24 -13 -100 -79v83zM300 331l58 59q14 12 29 12q14 0 30 -14l56 -60q8 -11 8 -19q0 -10 -10 -21l-56 -62q-17 -17 -28 -17q-17 0 -29 13l-62 71q-7 9 -7 17q0 10 11 21z" />
    <glyph glyph-name=".notdef" horiz-adv-x="864" 
d="M20 0v1434h824v-1434h-824zM70 50h724v1334h-724v-1334zM220 1143q34 31 63 47q62 35 132 35q107 0 168 -52t61 -129q0 -47 -22.5 -96t-87.5 -129q-62 -79 -98.5 -131.5t-36.5 -103.5q0 -38 26 -138h-82q-38 105 -38 154q0 73 81.5 215t81.5 219q0 61 -28 89t-70 28
q-28 0 -50 -12q-24 -13 -100 -79v83zM300 331l58 59q14 12 29 12q14 0 30 -14l56 -60q8 -11 8 -19q0 -10 -10 -21l-56 -62q-17 -17 -28 -17q-17 0 -29 13l-62 71q-7 9 -7 17q0 10 11 21z" />
    <glyph glyph-name=".notdef" horiz-adv-x="864" 
d="M20 0v1434h824v-1434h-824zM70 50h724v1334h-724v-1334zM220 1143q34 31 63 47q62 35 132 35q107 0 168 -52t61 -129q0 -47 -22.5 -96t-87.5 -129q-62 -79 -98.5 -131.5t-36.5 -103.5q0 -38 26 -138h-82q-38 105 -38 154q0 73 81.5 215t81.5 219q0 61 -28 89t-70 28
q-28 0 -50 -12q-24 -13 -100 -79v83zM300 331l58 59q14 12 29 12q14 0 30 -14l56 -60q8 -11 8 -19q0 -10 -10 -21l-56 -62q-17 -17 -28 -17q-17 0 -29 13l-62 71q-7 9 -7 17q0 10 11 21z" />
    <glyph glyph-name=".null" horiz-adv-x="0" 
 />
    <glyph glyph-name="nonmarkingreturn" horiz-adv-x="682" 
 />
    <glyph glyph-name="space" unicode=" " horiz-adv-x="1000" 
 />
    <glyph glyph-name="space" unicode="&#xa0;" horiz-adv-x="1000" 
 />
    <glyph glyph-name="exclam" unicode="!" horiz-adv-x="564" 
d="M544 1475v-885h-524v885h524zM544 393v-393h-524v393h524z" />
    <glyph glyph-name="quotedbl" unicode="&#x22;" horiz-adv-x="1050" 
d="M669 721l-98 754h459l-98 -754h-263zM118 721l-98 754h459l-98 -754h-263z" />
    <glyph glyph-name="numbersign" unicode="#" horiz-adv-x="2244" 
d="M970 852l-56 -229h360l57 229h-361zM270 0l56 229h-306v394h402l56 229h-327v394h423l57 229h491l-56 -229h361l56 229h492l-57 -229h306v-394h-402l-56 -229h327v-394h-423l-56 -229h-492l56 229h-360l-56 -229h-492z" />
    <glyph glyph-name="dollar" unicode="$" horiz-adv-x="1810" 
d="M555 914q0 -20 15 -30t59 -15t129 -8v171q-82 -8 -126.5 -28t-60.5 -44.5t-16 -45.5zM1275 462q0 22 -15.5 35t-64 19.5t-142.5 10.5v-187q93 10 141.5 31.5t64.5 46t16 44.5zM535 468q0 -24 17.5 -49.5t66 -45.5t139.5 -31v196q-384 19 -551 108t-167 291q0 191 184 299
t534 125v209h295v-210q221 -11 380 -59.5t245 -141t86 -235.5h-515q0 68 -196 99v-173q172 -8 308.5 -26.5t232 -58.5t146 -110t50.5 -182q0 -158 -85.5 -256.5t-250 -148.5t-401.5 -59v-209h-295v208q-238 7 -402.5 51t-250 141.5t-85.5 267.5h515z" />
    <glyph glyph-name="percent" unicode="%" horiz-adv-x="2813" 
d="M1423 1475h491l-524 -1475h-492zM2082 473v-61q0 -78 50 -108q42 -27 125 -27q91 0 133.5 32.5t42.5 102.5v61q0 78 -50 108q-42 27 -126 27q-91 0 -133 -32.5t-42 -102.5zM2049 20q-89 20 -163 63t-119 118t-45 190v103q0 119 48.5 195.5t126.5 119.5q70 38 152 56
q105 20 208 20q104 0 209 -20q89 -19 163 -62.5t119 -118.5t45 -190v-103q0 -119 -48.5 -195.5t-126.5 -119.5q-70 -38 -152 -56q-105 -20 -209 -20q-103 0 -208 20zM380 1063v-61q0 -78 50 -108q42 -27 125 -27q91 0 133.5 32.5t42.5 102.5v61q0 78 -51 108q-41 27 -125 27
q-91 0 -133 -32.5t-42 -102.5zM195 1399q69 38 152 56q105 20 208 20t209 -20q89 -19 163 -62.5t118.5 -118.5t44.5 -190v-103q0 -119 -48 -195.5t-127 -119.5q-69 -38 -151 -56q-106 -20 -209 -20t-208 20q-90 20 -163.5 63.5t-118.5 118t-45 189.5v103q0 119 48 195.5
t127 119.5z" />
    <glyph glyph-name="ampersand" unicode="&#x26;" horiz-adv-x="1810" 
d="M1151 468v125h-344q-119 0 -187 -15t-96.5 -43.5t-28.5 -66.5q0 -39 29 -68t97 -45t186 -16q176 0 260 36t84 93zM1593 400q0 -51 -18.5 -110t-68 -116t-138 -103.5t-226.5 -75t-335 -28.5q-199 0 -336.5 28.5t-226 75t-137.5 103.5t-68 116t-19 110q0 46 7 99t31.5 103
t74.5 90.5t135 63.5q-168 84 -168 266q0 121 69.5 199.5t224.5 117t413 38.5q182 0 311 -20q210 -31 302.5 -114t92.5 -221q0 -23 -2 -44h-425q-5 22 -25.5 44.5t-77.5 38t-176 15.5q-102 0 -156 -18t-74 -46t-20 -56q0 -29 19.5 -52.5t73.5 -38t157 -14.5h311h672v-258
h-197v-193z" />
    <glyph glyph-name="quotesingle" unicode="'" horiz-adv-x="499" 
d="M118 721l-98 754h459l-98 -754h-263z" />
    <glyph glyph-name="parenleft" unicode="(" horiz-adv-x="925" 
d="M479 -202q-127 0 -231 62t-166 166t-62 231v852q0 127 62 231t166 166t231 62h426v-393h-262q-68 0 -116 -48t-48 -116v-656q0 -68 48 -116t116 -48h262v-393h-426z" />
    <glyph glyph-name="parenright" unicode=")" horiz-adv-x="925" 
d="M446 -202h-426v393h262q68 0 116 48t48 116v656q0 68 -48 116t-116 48h-262v393h426q127 0 231 -62t166 -166t62 -231v-852q0 -127 -62 -231t-166 -166t-231 -62z" />
    <glyph glyph-name="asterisk" unicode="*" horiz-adv-x="1087" 
d="M109 691l251 233l-340 40l111 343l299 -168l-67 336h361l-68 -336l299 168l112 -342l-341 -41l253 -232l-292 -212l-144 311l-142 -311z" />
    <glyph glyph-name="plus" unicode="+" 
d="M1036 1331v-459h557v-393h-557v-459h-459v459h-557v393h557v459h459z" />
    <glyph glyph-name="comma" unicode="," horiz-adv-x="564" 
d="M118 -393l131 393h-229v394h524v-394l-229 -393h-197z" />
    <glyph glyph-name="hyphen" unicode="-" horiz-adv-x="1515" 
d="M1495 869v-393h-1475v393h1475z" />
    <glyph glyph-name="hyphen" unicode="&#xad;" horiz-adv-x="1515" 
d="M1495 869v-393h-1475v393h1475z" />
    <glyph glyph-name="period" unicode="." horiz-adv-x="564" 
d="M544 393v-393h-524v393h524z" />
    <glyph glyph-name="slash" unicode="/" horiz-adv-x="1155" 
d="M20 -52l590 1475h525l-591 -1475h-524z" />
    <glyph glyph-name="zero" unicode="0" horiz-adv-x="1745" 
d="M1200 624v98q0 82 -28 133t-74 80q-47 28 -105.5 38.5t-120.5 10.5q-61 0 -119.5 -10.5t-105.5 -39t-75 -80t-28 -132.5v-98q0 -82 28 -133.5t75 -79.5t105.5 -39t119.5 -11q62 0 120.5 11t105 39t74.5 79.5t28 133.5zM1205 1345q106 -23 199.5 -67t165.5 -114.5
t113.5 -171t41.5 -237.5v-164q0 -127 -35.5 -222.5t-98 -164.5t-145.5 -115q-111 -60 -241 -88q-82 -18 -166.5 -25.5t-166.5 -7.5t-166.5 7.5t-165.5 25.5q-106 23 -199.5 67t-165.5 114t-113.5 171t-41.5 238v164q0 126 35.5 222t98 164.5t145.5 114.5q110 61 241 89
q81 18 165.5 25.5t166.5 7.5t166.5 -7.5t166.5 -25.5z" />
    <glyph glyph-name="one" unicode="1" horiz-adv-x="1482" 
d="M1020 1344v-951h442v-393h-1442v393h475v525l-409 -131v426l409 131h525z" />
    <glyph glyph-name="two" unicode="2" horiz-adv-x="1745" 
d="M1725 929q0 -85 -36 -147t-96.5 -107t-136.5 -77t-158 -55.5t-160 -42.5q-104 -25 -182 -51.5t-108 -63.5h855v-384h-1683v227q0 92 49.5 162.5t132.5 123.5t186.5 92.5t214.5 69.5t216 55q106 26 192 50t137 51.5t51 62.5q0 43 -66.5 71t-206.5 28q-99 0 -180.5 -13.5
t-130 -47t-48.5 -95.5h-526q0 170 63 276t177.5 163.5t273 79t349.5 21.5q259 0 442.5 -44t281 -142.5t97.5 -262.5z" />
    <glyph glyph-name="three" unicode="3" horiz-adv-x="1745" 
d="M1725 966q0 -101 -55.5 -173t-157.5 -120q102 -48 157.5 -120.5t55.5 -173.5q0 -140 -98 -231t-283.5 -135.5t-449.5 -44.5q-196 0 -356.5 21.5t-276 79.5t-178.5 163.5t-63 273.5h525q0 -70 49.5 -99t133 -35t187.5 -6q148 0 216 25t68 78q0 32 -15.5 50t-63 25.5
t-140 9t-247.5 1.5v235q155 0 247.5 1.5t140 9.5t63 25.5t15.5 49.5q0 106 -284 104q-104 0 -187.5 -6t-133 -35.5t-49.5 -99.5h-525q0 168 63 273.5t178.5 163.5t276 79.5t356.5 21.5q264 0 449.5 -44t283.5 -135.5t98 -231.5z" />
    <glyph glyph-name="four" unicode="4" horiz-adv-x="1745" 
d="M1003 623v336l-459 -336h459zM1528 1344v-721h197v-394h-197v-229h-525v229h-983v394l983 721h525z" />
    <glyph glyph-name="five" unicode="5" horiz-adv-x="1745" 
d="M733 858q161 0 309 -7.5t272 -31.5t216 -73t143.5 -130t51.5 -204q0 -210 -217.5 -327t-613.5 -117q-196 0 -356.5 21.5t-276 79.5t-178.5 163.5t-63 273.5h525q0 -70 49.5 -99t133 -35t187.5 -6q148 0 216 25t68 78q0 32 -15.5 60t-63 48.5t-140 32t-247.5 11.5h-713v3
l164 721h1442v-361h-1000l-28 -126h135z" />
    <glyph glyph-name="six" unicode="6" horiz-adv-x="1745" 
d="M1255 458q0 9 -4.5 22.5t-22.5 28.5q-70 50 -212 62.5t-284 3t-212 -25.5l-31 -8v-130q0 -9 11.5 -26t51.5 -34.5t122.5 -30t225.5 -12.5q25 0 68.5 2t92.5 10.5t93 24.5t72.5 43.5t28.5 69.5zM1610 690q115 -98 115 -241q0 -65 -21 -133.5t-74 -130.5t-147 -111
t-238 -77.5t-350 -28.5q-203 0 -364.5 21t-275.5 78t-174.5 161t-60.5 269v318q0 166 60.5 270t174.5 160.5t275.5 78t364.5 21.5h727v-335h-887q-28 0 -69.5 -4.5t-81.5 -19t-68 -43.5t-28 -78v-34l48 9q47 9 178 17.5t300 1.5t329.5 -45.5t266.5 -123.5z" />
    <glyph glyph-name="seven" unicode="7" 
d="M20 951v393h1573v-393l-753 -951h-656l852 951h-1016z" />
    <glyph glyph-name="eight" unicode="8" horiz-adv-x="1745" 
d="M872 340q118 0 186 16.5t97 45.5t29 67q0 37 -28.5 65.5t-96.5 44t-187 15.5q-118 0 -186 -15t-97 -43.5t-29 -66.5q0 -39 29.5 -68t97.5 -45t185 -16zM872 1045q-102 0 -155.5 -10.5t-73.5 -30t-20 -47.5q0 -29 19.5 -48.5t73 -30t156.5 -10.5t157 10.5t73.5 30
t19.5 48.5q0 28 -20 47.5t-74 30t-156 10.5zM1411 757q169 -46 241.5 -134.5t72.5 -221.5q0 -105 -41 -186t-138 -136t-262 -83t-412 -28q-248 0 -412.5 28t-261 82.5t-137.5 135.5t-41 187q0 133 72 221.5t242 134.5q-169 84 -169 266q0 121 69.5 199.5t225 116.5t412.5 38
t412.5 -38t225 -117t69.5 -199q0 -179 -168 -266z" />
    <glyph glyph-name="nine" unicode="9" horiz-adv-x="1745" 
d="M489 888q0 -10 5 -23t23 -28q69 -50 211.5 -62.5t284.5 -3t212 25.5l31 7l-1 131q0 9 -11 26t-51 34.5t-123 30t-226 12.5q-25 0 -68 -2.5t-92.5 -10.5t-93.5 -24.5t-72.5 -43.5t-28.5 -69zM134 656q-114 98 -114 240q0 66 21 134.5t73.5 130.5t146.5 110.5t238.5 77.5
t350.5 29q202 0 364 -21.5t276 -78t174.5 -160.5t60.5 -270v-318q0 -165 -60.5 -269t-174.5 -161t-276 -78t-364 -21h-727v335h887q27 0 68.5 4.5t82 19t68 43.5t27.5 78v33l-47 -8q-47 -9 -178.5 -18t-300.5 -1.5t-329.5 46t-266.5 123.5z" />
    <glyph glyph-name="colon" unicode=":" horiz-adv-x="564" 
d="M544 1115v-394h-524v394h524zM544 393v-393h-524v393h524z" />
    <glyph glyph-name="semicolon" unicode=";" horiz-adv-x="564" 
d="M544 1115v-393h-524v393h524zM118 -393l131 393h-229v394h524v-394l-229 -393h-197z" />
    <glyph glyph-name="less" unicode="&#x3c;" 
d="M1593 1262v-393l-786 -197l786 -196v-394l-1573 394v393z" />
    <glyph glyph-name="equal" unicode="=" 
d="M1593 1179v-393h-1573v393h1573zM1593 559v-393h-1573v393h1573z" />
    <glyph glyph-name="greater" unicode="&#x3e;" 
d="M20 1262l1573 -393v-393l-1573 -394v394l787 196l-787 197v393z" />
    <glyph glyph-name="question" unicode="?" horiz-adv-x="1646" 
d="M446 1000h-425q-1 16 -1 33q0 51 6.5 103.5t25.5 102t57 92.5q55 64 166.5 104t301.5 40h492q152 0 253 -26t162 -70.5t92 -101.5t40.5 -120t9.5 -124q0 -78 -24 -126.5t-64.5 -77t-90.5 -45.5t-104 -29q-52 -12 -100.5 -28t-88 -43.5t-62.5 -73t-23 -118.5h-525
q0 106 31 179.5t81.5 121.5t113 77.5t128 46.5t124.5 28q51 10 91 21t63.5 26t23.5 41q0 63 -45 83.5t-168 20.5h-328q-123 0 -168 -20t-45 -84v-14v-13.5v-5.5zM544 0v328h525v-328h-525z" />
    <glyph glyph-name="at" unicode="@" horiz-adv-x="1908" 
d="M1397 655l10 12l-10 12q-53 61 -118 95q-64 34 -152 34q-94 0 -139.5 -14.5t-59.5 -45.5t-14 -81q0 -38 7 -64.5t29 -43.5q36 -33 177 -33q88 0 152.5 34t117.5 95zM1888 241h-393v192l-26 -30q-14 -16 -31 -32q-66 -62 -152 -99q-109 -48 -230 -48q-165 0 -266 35
t-155 96q-53 61 -72 141.5t-19 170.5t19 170.5t72 141.5q54 61 155 96t266 35q218 0 382 -147q17 -16 31 -32l26 -30v127q0 54 -24.5 93.5t-66 66.5t-93.5 44q-81 25 -180 33t-160 8q-50 0 -121 -6.5t-146.5 -23t-141 -46t-107.5 -75.5t-42 -111v-688q0 -65 38.5 -111
t99.5 -75.5t131.5 -46t138.5 -23t117 -6.5h33v-361h-33q-148 0 -308.5 24t-298.5 81q-90 37 -160 98.5t-110.5 152.5t-40.5 218v786q0 127 40.5 218t110.5 152.5t160 98.5q140 57 316 81t324 24q117 0 244.5 -9.5t246.5 -40t214.5 -91t152.5 -161t59 -250.5v-841z" />
    <glyph glyph-name="A" unicode="A" horiz-adv-x="2105" 
d="M868 557h369l-184 397zM741 1343h623l721 -1344h-590l-106 230h-673l-106 -230h-590z" />
    <glyph glyph-name="B" unicode="B" horiz-adv-x="1843" 
d="M1249 319q34 0 58 28t24 62t-24 62t-58 28h-705v-180h705zM544 1024v-181h607q34 0 58 28.5t24 62.5t-24 62t-58 28h-607zM1569 694q114 -37 184 -122t70 -212v0q0 -118 -57.5 -198t-154.5 -121.5t-214 -41.5h-1377v1344h1278q118 0 215 -41t154.5 -121.5t57.5 -197.5v0
q0 -97 -42 -170t-114 -119z" />
    <glyph glyph-name="C" unicode="C" horiz-adv-x="1873" 
d="M1316 558v0h537q-14 -169 -89 -283.5t-199 -182t-284.5 -96t-342.5 -28.5v0q-190 0 -356.5 31.5t-292.5 106t-197.5 201.5t-71.5 317v98q0 190 71.5 316.5t197.5 201t292.5 106.5t356.5 32v0q182 0 342.5 -29t284.5 -96.5t199 -181.5t89 -283h-537q-24 65 -79 101
t-132 49t-167 13v0q-108 0 -197.5 -20t-142.5 -76.5t-53 -165.5v-33q0 -108 53 -164.5t142.5 -77t197.5 -20.5v0q90 0 167 13.5t132 49t79 101.5z" />
    <glyph glyph-name="D" unicode="D" horiz-adv-x="1876" 
d="M1331 671q0 68 -25 124t-72.5 89t-115.5 33h-574v-492h574q68 0 115.5 33.5t72.5 89t25 123.5zM1216 1343q186 0 330.5 -90.5t227 -243t82.5 -338.5v0q0 -185 -82.5 -337.5t-227 -243.5t-330.5 -91h-1196v1344h1196z" />
    <glyph glyph-name="E" unicode="E" 
d="M20 1343h1573v-344h-1049v-172h1049v-311h-1049v-172h1049v-345h-1573v1344z" />
    <glyph glyph-name="F" unicode="F" horiz-adv-x="1679" 
d="M20 1343h1639v-426h-1115v-164h984v-393h-984v-361h-524v1344z" />
    <glyph glyph-name="G" unicode="G" horiz-adv-x="1867" 
d="M934 739v0h913v-771h-262l-26 209q-78 -77 -179 -123t-214.5 -66t-227.5 -20v0q-190 0 -357 32t-292.5 106.5t-197 201t-71.5 316.5v98q0 190 71.5 317t197 201.5t292.5 106t357 31.5v0q175 0 330 -26.5t277.5 -88.5t201 -166.5t100.5 -259.5h-557q-50 67 -143 91
t-209 24v0q-109 0 -198.5 -20.5t-142.5 -77t-53 -164.5v-33q0 -109 53 -165.5t142.5 -76.5t198.5 -20v0q103 0 182.5 7t138 32t97.5 75h-422v230z" />
    <glyph glyph-name="H" unicode="H" horiz-adv-x="1876" 
d="M544 460v-459h-524v1344h524v-459h787v459h525v-1344h-525v459h-787z" />
    <glyph glyph-name="I" unicode="I" horiz-adv-x="564" 
d="M544 1345v-1344h-524v1344h524z" />
    <glyph glyph-name="J" unicode="J" horiz-adv-x="1875" 
d="M1331 1344v0h524v-721q0 -190 -71.5 -316.5t-197 -201t-292 -106t-357.5 -31.5v0q-190 0 -356.5 31.5t-292 106t-197 201t-71.5 316.5v164h524v-131q0 -109 53 -165.5t142.5 -76.5t197.5 -20v0q109 0 198.5 20t142.5 76.5t53 165.5v688z" />
    <glyph glyph-name="K" unicode="K" horiz-adv-x="1974" 
d="M544 460v-459h-524v1344h524v-459h229l493 459h688l-697 -672l697 -672h-688l-493 459h-229z" />
    <glyph glyph-name="L" unicode="L" 
d="M544 1345v-918h1049v-426h-1573v1344h524z" />
    <glyph glyph-name="M" unicode="M" horiz-adv-x="2400" 
d="M20 1345h656l524 -672l525 672h655v-1344h-524v717l-525 -717h-262l-525 717v-717h-524v1344z" />
    <glyph glyph-name="N" unicode="N" horiz-adv-x="1876" 
d="M1331 1345h525v-1344h-590l-722 821v-821h-524v1344h721l590 -712v712z" />
    <glyph glyph-name="O" unicode="O" horiz-adv-x="1875" 
d="M938 1378v0q190 0 356.5 -31.5t292 -106t197 -201.5t71.5 -317v-98q0 -190 -71.5 -316.5t-197 -201.5t-292 -106.5t-356.5 -31.5v0q-190 0 -357 31.5t-292.5 106.5t-197 201.5t-71.5 316.5v98q0 190 71.5 317t197 201.5t292.5 106t357 31.5v0zM1331 657v0v33
q0 108 -53 164.5t-142.5 77t-197.5 20.5v0q-109 0 -198.5 -20.5t-142.5 -77t-53 -164.5v-33q0 -109 53 -165.5t142.5 -77t198.5 -20.5v0q108 0 197.5 20.5t142.5 77t53 165.5z" />
    <glyph glyph-name="P" unicode="P" horiz-adv-x="1843" 
d="M1184 721q47 0 80.5 33.5t33.5 80.5q0 48 -33.5 81.5t-80.5 33.5h-640v-229h640zM1315 1343q140 0 255.5 -68.5t184 -183.5t68.5 -256v0q0 -140 -68.5 -255.5t-184 -184t-255.5 -68.5h-771v-328h-524v1344h1295z" />
    <glyph glyph-name="Q" unicode="Q" horiz-adv-x="1876" 
d="M1856 623v0q0 -192 -73 -319t-201 -202l274 -397h-558l-169 270q-93 -8 -191 -8v0q-190 0 -356.5 31.5t-292.5 106t-197.5 201t-71.5 317.5v98q0 190 71.5 316.5t197.5 201t292.5 106.5t356.5 32v0q190 0 356.5 -32t292.5 -106.5t197.5 -201t71.5 -316.5v-98zM938 393v0
v0q108 0 197.5 20.5t142.5 77t53 164.5v33q0 109 -53 165.5t-142.5 76.5t-197.5 20v0q-109 0 -198 -20t-142.5 -76.5t-53.5 -165.5v-33q0 -108 53.5 -164.5t142.5 -77t198 -20.5z" />
    <glyph glyph-name="R" unicode="R" horiz-adv-x="1843" 
d="M1315 1344v0q140 0 255.5 -68.5t184 -183.5t68.5 -256v0q0 -152 -80.5 -274.5t-212.5 -184.5l293 -377h-558l-253 328h-468v-328h-524v1344h1295zM544 951v0v-229h639q48 0 81.5 33.5t33.5 80.5q0 48 -33.5 81.5t-81.5 33.5h-639z" />
    <glyph glyph-name="S" unicode="S" horiz-adv-x="1864" 
d="M569 902v0q0 -29 49.5 -44t134 -21.5t190.5 -11.5q114 -5 238 -14.5t241.5 -31t212.5 -62t152 -107t57 -167.5q0 -115 -49 -197t-136 -136t-202 -85.5t-249 -44t-276 -12.5q-177 0 -334 16t-280 65t-200.5 144t-97.5 250h549q30 -52 84 -80.5t125.5 -39.5t153.5 -11
q61 0 125 6t118 20.5t87 40t33 64.5q0 30 -49.5 44.5t-134 21.5t-190.5 12q-114 5 -238 14.5t-241.5 31t-212.5 62t-152 106.5t-57 167q0 116 49 197.5t136 136t202 85.5t249 44t276 13q177 0 334 -16.5t280 -65t200.5 -143.5t97.5 -251h-549q-30 53 -84 81.5t-125.5 39
t-153.5 10.5q-61 0 -125 -5.5t-118 -20t-87 -40t-33 -65.5z" />
    <glyph glyph-name="T" unicode="T" horiz-adv-x="1810" 
d="M643 -1v918h-623v426h1770v-426h-623v-918h-524z" />
    <glyph glyph-name="U" unicode="U" horiz-adv-x="1876" 
d="M1331 1345v0h525v-722q0 -190 -71.5 -316.5t-197.5 -201t-292.5 -106t-356.5 -31.5v0q-190 0 -356.5 31.5t-292.5 106t-197.5 201t-71.5 316.5v722h524v-689q0 -109 53.5 -165.5t142.5 -76.5t198 -20v0q108 0 197.5 20t142.5 76.5t53 165.5v689z" />
    <glyph glyph-name="V" unicode="V" horiz-adv-x="2040" 
d="M1020 410l410 933h590l-689 -1344h-623l-688 1344h590z" />
    <glyph glyph-name="W" unicode="W" horiz-adv-x="3056" 
d="M2446 1343h590l-590 -1344h-623l-295 672l-295 -672h-623l-590 1344h590l311 -851l312 851h590l311 -851z" />
    <glyph glyph-name="X" unicode="X" horiz-adv-x="2105" 
d="M1430 1343h655l-705 -672l705 -672h-655l-377 393l-377 -393h-656l705 672l-705 672h656l377 -392z" />
    <glyph glyph-name="Y" unicode="Y" horiz-adv-x="2072" 
d="M1036 861l394 482h622l-754 -885v-459h-524v459l-754 885h623z" />
    <glyph glyph-name="Z" unicode="Z" horiz-adv-x="1777" 
d="M20 917v426h1737v-426l-917 -491h917v-427h-1737v427l885 491h-885z" />
    <glyph glyph-name="bracketleft" unicode="[" horiz-adv-x="925" 
d="M905 193v-393h-885v1770h885v-393h-426v-984h426z" />
    <glyph glyph-name="backslash" unicode="\" horiz-adv-x="1155" 
d="M1135 -52h-525l-590 1475h524z" />
    <glyph glyph-name="bracketright" unicode="]" horiz-adv-x="925" 
d="M20 193h426v984h-426v393h885v-1770h-885v393z" />
    <glyph glyph-name="asciicircum" unicode="^" horiz-adv-x="1417" 
d="M708 1252l-262 -596h-426l426 819h164h197h164l426 -819h-426z" />
    <glyph glyph-name="underscore" unicode="_" horiz-adv-x="2105" 
d="M2085 1v-361h-2065v361h2065z" />
    <glyph glyph-name="grave" unicode="`" horiz-adv-x="728" 
d="M708 918l-688 229v328l688 -328v-229z" />
    <glyph glyph-name="a" unicode="a" horiz-adv-x="2105" 
d="M868 557h369l-184 397zM741 1343h623l721 -1344h-590l-106 230h-673l-106 -230h-590z" />
    <glyph glyph-name="b" unicode="b" horiz-adv-x="1843" 
d="M1249 319q34 0 58 28t24 62t-24 62t-58 28h-705v-180h705zM544 1024v-181h607q34 0 58 28.5t24 62.5t-24 62t-58 28h-607zM1569 694q114 -37 184 -122t70 -212v0q0 -118 -57.5 -198t-154.5 -121.5t-214 -41.5h-1377v1344h1278q118 0 215 -41t154.5 -121.5t57.5 -197.5v0
q0 -97 -42 -170t-114 -119z" />
    <glyph glyph-name="c" unicode="c" horiz-adv-x="1873" 
d="M1316 558v0h537q-14 -169 -89 -283.5t-199 -182t-284.5 -96t-342.5 -28.5v0q-190 0 -356.5 31.5t-292.5 106t-197.5 201.5t-71.5 317v98q0 190 71.5 316.5t197.5 201t292.5 106.5t356.5 32v0q182 0 342.5 -29t284.5 -96.5t199 -181.5t89 -283h-537q-24 65 -79 101
t-132 49t-167 13v0q-108 0 -197.5 -20t-142.5 -76.5t-53 -165.5v-33q0 -108 53 -164.5t142.5 -77t197.5 -20.5v0q90 0 167 13.5t132 49t79 101.5z" />
    <glyph glyph-name="d" unicode="d" horiz-adv-x="1876" 
d="M1331 671q0 68 -25 124t-72.5 89t-115.5 33h-574v-492h574q68 0 115.5 33.5t72.5 89t25 123.5zM1216 1343q186 0 330.5 -90.5t227 -243t82.5 -338.5v0q0 -185 -82.5 -337.5t-227 -243.5t-330.5 -91h-1196v1344h1196z" />
    <glyph glyph-name="e" unicode="e" 
d="M20 1343h1573v-344h-1049v-172h1049v-311h-1049v-172h1049v-345h-1573v1344z" />
    <glyph glyph-name="f" unicode="f" horiz-adv-x="1679" 
d="M20 1343h1639v-426h-1115v-164h984v-393h-984v-361h-524v1344z" />
    <glyph glyph-name="g" unicode="g" horiz-adv-x="1867" 
d="M934 739v0h913v-771h-262l-26 209q-78 -77 -179 -123t-214.5 -66t-227.5 -20v0q-190 0 -357 32t-292.5 106.5t-197 201t-71.5 316.5v98q0 190 71.5 317t197 201.5t292.5 106t357 31.5v0q175 0 330 -26.5t277.5 -88.5t201 -166.5t100.5 -259.5h-557q-50 67 -143 91
t-209 24v0q-109 0 -198.5 -20.5t-142.5 -77t-53 -164.5v-33q0 -109 53 -165.5t142.5 -76.5t198.5 -20v0q103 0 182.5 7t138 32t97.5 75h-422v230z" />
    <glyph glyph-name="h" unicode="h" horiz-adv-x="1876" 
d="M544 460v-459h-524v1344h524v-459h787v459h525v-1344h-525v459h-787z" />
    <glyph glyph-name="i" unicode="i" horiz-adv-x="564" 
d="M544 1345v-1344h-524v1344h524z" />
    <glyph glyph-name="j" unicode="j" horiz-adv-x="1875" 
d="M1331 1344v0h524v-721q0 -190 -71.5 -316.5t-197 -201t-292 -106t-357.5 -31.5v0q-190 0 -356.5 31.5t-292 106t-197 201t-71.5 316.5v164h524v-131q0 -109 53 -165.5t142.5 -76.5t197.5 -20v0q109 0 198.5 20t142.5 76.5t53 165.5v688z" />
    <glyph glyph-name="k" unicode="k" horiz-adv-x="1974" 
d="M544 460v-459h-524v1344h524v-459h229l493 459h688l-697 -672l697 -672h-688l-493 459h-229z" />
    <glyph glyph-name="l" unicode="l" 
d="M544 1345v-918h1049v-426h-1573v1344h524z" />
    <glyph glyph-name="m" unicode="m" horiz-adv-x="2400" 
d="M20 1345h656l524 -672l525 672h655v-1344h-524v717l-525 -717h-262l-525 717v-717h-524v1344z" />
    <glyph glyph-name="n" unicode="n" horiz-adv-x="1876" 
d="M1331 1345h525v-1344h-590l-722 821v-821h-524v1344h721l590 -712v712z" />
    <glyph glyph-name="o" unicode="o" horiz-adv-x="1875" 
d="M938 1378v0q190 0 356.5 -31.5t292 -106t197 -201.5t71.5 -317v-98q0 -190 -71.5 -316.5t-197 -201.5t-292 -106.5t-356.5 -31.5v0q-190 0 -357 31.5t-292.5 106.5t-197 201.5t-71.5 316.5v98q0 190 71.5 317t197 201.5t292.5 106t357 31.5v0zM1331 657v0v33
q0 108 -53 164.5t-142.5 77t-197.5 20.5v0q-109 0 -198.5 -20.5t-142.5 -77t-53 -164.5v-33q0 -109 53 -165.5t142.5 -77t198.5 -20.5v0q108 0 197.5 20.5t142.5 77t53 165.5z" />
    <glyph glyph-name="p" unicode="p" horiz-adv-x="1843" 
d="M1184 721q47 0 80.5 33.5t33.5 80.5q0 48 -33.5 81.5t-80.5 33.5h-640v-229h640zM1315 1343q140 0 255.5 -68.5t184 -183.5t68.5 -256v0q0 -140 -68.5 -255.5t-184 -184t-255.5 -68.5h-771v-328h-524v1344h1295z" />
    <glyph glyph-name="q" unicode="q" horiz-adv-x="1876" 
d="M1856 623v0q0 -192 -73 -319t-201 -202l274 -397h-558l-169 270q-93 -8 -191 -8v0q-190 0 -356.5 31.5t-292.5 106t-197.5 201t-71.5 317.5v98q0 190 71.5 316.5t197.5 201t292.5 106.5t356.5 32v0q190 0 356.5 -32t292.5 -106.5t197.5 -201t71.5 -316.5v-98zM938 393v0
v0q108 0 197.5 20.5t142.5 77t53 164.5v33q0 109 -53 165.5t-142.5 76.5t-197.5 20v0q-109 0 -198 -20t-142.5 -76.5t-53.5 -165.5v-33q0 -108 53.5 -164.5t142.5 -77t198 -20.5z" />
    <glyph glyph-name="r" unicode="r" horiz-adv-x="1843" 
d="M1315 1344v0q140 0 255.5 -68.5t184 -183.5t68.5 -256v0q0 -152 -80.5 -274.5t-212.5 -184.5l293 -377h-558l-253 328h-468v-328h-524v1344h1295zM544 951v0v-229h639q48 0 81.5 33.5t33.5 80.5q0 48 -33.5 81.5t-81.5 33.5h-639z" />
    <glyph glyph-name="s" unicode="s" horiz-adv-x="1864" 
d="M569 902v0q0 -29 49.5 -44t134 -21.5t190.5 -11.5q114 -5 238 -14.5t241.5 -31t212.5 -62t152 -107t57 -167.5q0 -115 -49 -197t-136 -136t-202 -85.5t-249 -44t-276 -12.5q-177 0 -334 16t-280 65t-200.5 144t-97.5 250h549q30 -52 84 -80.5t125.5 -39.5t153.5 -11
q61 0 125 6t118 20.5t87 40t33 64.5q0 30 -49.5 44.5t-134 21.5t-190.5 12q-114 5 -238 14.5t-241.5 31t-212.5 62t-152 106.5t-57 167q0 116 49 197.5t136 136t202 85.5t249 44t276 13q177 0 334 -16.5t280 -65t200.5 -143.5t97.5 -251h-549q-30 53 -84 81.5t-125.5 39
t-153.5 10.5q-61 0 -125 -5.5t-118 -20t-87 -40t-33 -65.5z" />
    <glyph glyph-name="t" unicode="t" horiz-adv-x="1810" 
d="M643 -1v918h-623v426h1770v-426h-623v-918h-524z" />
    <glyph glyph-name="u" unicode="u" horiz-adv-x="1876" 
d="M1331 1345v0h525v-722q0 -190 -71.5 -316.5t-197.5 -201t-292.5 -106t-356.5 -31.5v0q-190 0 -356.5 31.5t-292.5 106t-197.5 201t-71.5 316.5v722h524v-689q0 -109 53.5 -165.5t142.5 -76.5t198 -20v0q108 0 197.5 20t142.5 76.5t53 165.5v689z" />
    <glyph glyph-name="v" unicode="v" horiz-adv-x="2040" 
d="M1020 410l410 933h590l-689 -1344h-623l-688 1344h590z" />
    <glyph glyph-name="w" unicode="w" horiz-adv-x="3056" 
d="M2446 1343h590l-590 -1344h-623l-295 672l-295 -672h-623l-590 1344h590l311 -851l312 851h590l311 -851z" />
    <glyph glyph-name="x" unicode="x" horiz-adv-x="2105" 
d="M1430 1343h655l-705 -672l705 -672h-655l-377 393l-377 -393h-656l705 672l-705 672h656l377 -392z" />
    <glyph glyph-name="y" unicode="y" horiz-adv-x="2072" 
d="M1036 861l394 482h622l-754 -885v-459h-524v459l-754 885h623z" />
    <glyph glyph-name="z" unicode="z" horiz-adv-x="1777" 
d="M20 917v426h1737v-426l-917 -491h917v-427h-1737v427l885 491h-885z" />
    <glyph glyph-name="braceleft" unicode="{" horiz-adv-x="1155" 
d="M348 322q0 82 -57.5 139.5t-139.5 57.5h-131v148v147h131q82 0 139.5 57.5t57.5 139.5v65q0 127 62 231.5t166 166t231 61.5h328v-393h-230q-68 0 -116 -48t-48 -116q0 -129 -91 -220t-220 -91q129 0 220 -91.5t91 -220.5q0 -68 48 -116t116 -48h230v-393h-328
q-127 0 -231 62t-166 166t-62 231v65z" />
    <glyph glyph-name="bar" unicode="|" horiz-adv-x="564" 
d="M544 1570v-1770h-524v1770h524z" />
    <glyph glyph-name="braceright" unicode="}" horiz-adv-x="1155" 
d="M807 322v-65q0 -127 -62 -231t-166 -166t-231 -62h-328v393h229q68 0 116 48t48 116q0 129 91.5 220.5t220.5 91.5q-129 0 -220.5 91t-91.5 220q0 68 -48 116t-116 48h-229v393h328q127 0 231 -61.5t166 -166t62 -231.5v-65q0 -82 57.5 -139.5t138.5 -57.5h132v-147v-148
h-132q-81 0 -138.5 -57.5t-57.5 -139.5z" />
    <glyph glyph-name="asciitilde" unicode="~" horiz-adv-x="1810" 
d="M414 476v-27.5t-0.5 -56t-0.5 -56v-24.5h-393v279q0 16 1 31q13 147 102 248.5t221 139.5t272 -8l558 -221q76 -32 143 -11t79 99v28t0.5 56.5t0.5 55.5v24h393v-278q0 -16 -1 -32q-13 -146 -102 -248t-221 -140t-272 8l-558 221q-76 33 -143 11.5t-79 -99.5z" />
    <glyph glyph-name="exclamdown" unicode="&#xa1;" horiz-adv-x="564" 
d="M20 -517v885h524v-885h-524zM20 565v393h524v-393h-524z" />
    <glyph glyph-name="cent" unicode="&#xa2;" horiz-adv-x="1810" 
d="M527 701v-32q0 -79 36.5 -128.5t93.5 -76.5q47 -23 101 -34v510q-62 -13 -114 -41t-84.5 -76t-32.5 -122zM527 55q-103 28 -194 76t-161.5 118.5t-111 166.5t-40.5 222v95q0 122 39 216.5t106.5 164.5t155.5 119q96 53 206 82q114 32 231 43v212h295v-211
q117 -11 233 -44q128 -34 237 -100.5t180 -169.5t87 -249h-504h-18q-36 75 -112 110q-48 23 -103 34v-510q70 14 128 48t87 96h18h504q-17 -156 -97 -263.5t-201 -173.5q-96 -53 -206 -82q-116 -33 -233 -43v-212h-295v212q-117 11 -231 43z" />
    <glyph glyph-name="sterling" unicode="&#xa3;" horiz-adv-x="1351" 
d="M20 426q95 0 162 67.5t67 162.5v229h-229v197h229v229q0 127 62 231t166.5 166t230.5 62h623v-393h-491q-68 0 -116 -48t-48 -116v-131h524v-197h-524v-33q0 -128 -53.5 -238t-145.5 -188h854v-426h-1311v426z" />
    <glyph glyph-name="currency" unicode="&#xa4;" horiz-adv-x="1524" 
d="M721 519q21 -1 41 -1t42 1q14 1 28 3h2h3q17 2 34 5q2 0 4 1q1 0 3 1q13 2 27 6h2l6 2q33 9 63 24q2 2 4 3q1 0 2 1q13 7 24 16q1 0 2 1l1 1q14 10 25 23v0v0q11 13 20 27q24 38 24 96v26q0 61 -27 100q-4 7 -9 12q-3 6 -8 11q-4 5 -9 10q-1 0 -2 1l-8 8q-6 4 -12 9
q-2 1 -3 2q-4 2 -7 5q-8 5 -18 10q-1 0 -2 1l-4 2h-1q0 1 -1 1q-16 7 -32 13q-1 0 -3 1q-4 1 -8 3q-17 5 -34 9q-4 1 -8 1q-1 1 -3 1q-16 3 -32 5q-1 0 -3 1h-3q-19 2 -38 3q-21 2 -41 2t-42 -2q-14 0 -28 -2h-3h-3q-16 -2 -33 -5q-2 -1 -4 -1q-2 -1 -3 -1q-14 -2 -27 -6h-2
q-3 -1 -7 -2q-33 -9 -62 -25l-4 -2q-1 -1 -2 -1q-13 -7 -25 -16l-1 -1q-1 0 -1 -1q-14 -10 -25 -23v0q-1 0 -1 -1q-11 -12 -19 -27q-24 -38 -24 -95v-26q0 -61 27 -101l8 -12q4 -5 9 -10q4 -5 9 -10l1 -1q4 -4 9 -8q6 -5 12 -9q2 -1 3 -2q3 -3 7 -5q8 -5 17 -10q1 -1 3 -1
q1 -1 3 -2l1 -1h2q15 -8 32 -13q1 -1 2 -1q4 -2 8 -3q17 -5 35 -9q4 -1 7 -2h4q15 -3 31 -6h3h4q19 -3 38 -4zM762 1308q75 0 156 -10t160 -32q5 -1 11 -3l6 -2l223 223l186 -186l-164 -163v0q73 -61 116 -148t43 -206v-79q0 -118 -43 -205t-116 -148l164 -163l-186 -186
l-223 223l-6 -2q-6 -2 -11 -4q-79 -22 -160 -32t-156 -10t-156 10t-160 32q-6 2 -11 4q-3 1 -7 2v0l-222 -223l-186 186l163 163q-72 60 -115.5 147.5t-43.5 205.5v79q0 119 43.5 206t115.5 148l-163 163l186 186l222 -223v0q4 1 7 2q5 2 11 3q79 22 160 32t156 10z" />
    <glyph glyph-name="yen" unicode="&#xa5;" horiz-adv-x="1941" 
d="M233 918h353l-566 852h623l328 -566l327 566h623l-566 -852h353v-230h-475v-131h475v-229h-475v-328h-525v328h-475v229h475v131h-475v230z" />
    <glyph glyph-name="brokenbar" unicode="&#xa6;" horiz-adv-x="564" 
d="M20 882v688h524v-688h-524zM544 488v-688h-524v688h524z" />
    <glyph glyph-name="section" unicode="&#xa7;" horiz-adv-x="1717" 
d="M1192 670q17 25 17 45q0 28 -28.5 40.5t-122.5 18.5q-73 4 -200 8q-75 2 -143 4q-10 1 -19 1q-68 3 -121 -38q-46 -43 -48 -79v-1q-1 -5 -1 -9q0 -23 23 -32.5t94 -13.5q52 -3 139 -6q35 -1 76 -2q74 -3 143 -6v0v0q59 0 97 11.5t60.5 27.5t33.5 31zM877 111
q108 0 174 12.5t100.5 31.5t46 40t11.5 37q0 27 -25.5 39.5t-107.5 18.5h-1q-75 5 -217 9q-440 9 -629.5 92t-189.5 291q0 20 2 39q13 118 108 199v0q-110 83 -110 245q0 197 206 301t594 104q257 0 443.5 -41t288 -132.5t101.5 -244.5h-488q0 48 -101.5 77.5t-280.5 29.5
q-115 0 -174 -19.5t-80.5 -46.5t-21.5 -50q0 -21 20 -31t80 -14t176 -8q26 0 56 -2h24q12 -1 24 -1h4q86 -4 165 -9q279 -13 440 -78.5t179 -236.5q2 -18 2 -38q0 -29 -3 -55q-14 -124 -93 -204v0v0q47 -38 72 -93t25 -131q0 -164 -97.5 -261t-285 -139t-456.5 -42
q-202 0 -358 19t-263 67t-162 133.5t-55 218.5h487q0 -22 15 -44t54.5 -41t112 -30.5t188.5 -11.5z" />
    <glyph glyph-name="dieresis" unicode="&#xa8;" horiz-adv-x="860" 
d="M512 1188v287h328v-287h-328zM20 1188v287h328v-287h-328z" />
    <glyph glyph-name="copyright" unicode="&#xa9;" horiz-adv-x="1961" 
d="M1228 594h328q-11 -94 -63 -159t-131 -104q-62 -32 -134 -50q-129 -30 -247 -30q-117 0 -247 30q-89 23 -163.5 67t-120 113.5t-45.5 170.5v57q0 111 54.5 184.5t141.5 116.5q62 32 133 50q130 30 247 30q118 0 247 -30q127 -31 219 -106t109 -207h-328h-12
q-23 46 -72 67q-38 16 -81 22.5t-82 6.5q-38 0 -81 -6.5t-80.5 -23t-61.5 -46.5t-24 -77v-19q0 -47 24 -77t61 -47q38 -16 81 -22t81 -6q43 0 90.5 7.5t86.5 28.5t58 59h12zM1339 167q101 28 180 72q225 120 225 370v103q0 31 -7 87t-43.5 122t-120 128t-234.5 105
q-169 47 -358 47t-358 -47h-1h-1q-100 -28 -179 -72q-225 -120 -225 -370v-103q0 -30 7 -86.5t43.5 -122.5t120 -127.5t234.5 -105.5q170 -47 359 -47t357 47h1zM1615 67q-104 -57 -223 -89q-103 -29 -208 -42t-203 -13t-203.5 13t-208.5 42q-111 30 -209.5 82t-175 128.5
t-120.5 180.5t-44 240v103q0 133 42 235.5t115.5 178.5t168.5 128q104 57 223 90q103 28 208.5 41t203.5 13t203 -13t208 -41q111 -31 209.5 -83t175 -128.5t120.5 -180.5t44 -240v-103q0 -132 -42 -235t-115.5 -179t-168.5 -128z" />
    <glyph glyph-name="guillemotleft" unicode="&#xab;" horiz-adv-x="1737" 
d="M1056 82h-524l-492 590l492 590h524l-492 -590zM1737 82h-524l-492 590l492 590h524l-492 -590z" />
    <glyph glyph-name="logicalnot" unicode="&#xac;" horiz-adv-x="1679" 
d="M1200 98v492h-1180v393h1639v-885h-459z" />
    <glyph glyph-name="registered" unicode="&#xae;" horiz-adv-x="1961" 
d="M1117 686q27 0 45.5 17t18.5 42q0 24 -18.5 41t-45.5 17h-337v-117h337zM1472 745q0 -79 -44.5 -141.5t-117.5 -94.5l162 -193h-309l-132 168h-251v-168h-291v168v202v117v202h291h410q117 0 199.5 -76.5t82.5 -183.5zM1744 609v103q0 31 -7 87t-43.5 122t-120 128
t-234.5 105q-169 47 -358 47t-358 -47h-1h-1q-100 -28 -179 -72q-225 -120 -225 -370v-103q0 -30 7 -86.5t43.5 -122.5t120 -127.5t234.5 -105.5q170 -47 359 -47t357 47h1h1q100 28 179 72q225 120 225 370zM1941 609q0 -132 -42 -235t-115.5 -179t-168.5 -128
q-104 -57 -223 -89q-103 -29 -208 -42t-203 -13t-203.5 13t-208.5 42q-111 30 -209.5 82t-175 128.5t-120.5 180.5t-44 240v103q0 133 42 235.5t115.5 178.5t168.5 128q104 57 223 90q103 28 208.5 41t203.5 13t203 -13t208 -41q111 -31 209.5 -83t175 -128.5t120.5 -180.5
t44 -240v-103z" />
    <glyph glyph-name="macron" unicode="&#xaf;" horiz-adv-x="794" 
d="M20 1221v254h754v-254h-754z" />
    <glyph glyph-name="degree" unicode="&#xb0;" horiz-adv-x="907" 
d="M604 1115v51q0 66 -45 94q-35 22 -106 22q-78 0 -114 -28t-36 -88v-51q0 -67 44 -94q36 -23 106 -23q78 0 114.5 28.5t36.5 88.5zM745 844q-56 -31 -122 -45q-86 -17 -170 -17q-83 0 -169 17q-72 15 -131.5 50t-96 96t-36.5 154v83q0 97 39 158.5t103 96.5q56 31 122 45
q86 17 169 17q84 0 170 -17q72 -15 131.5 -50.5t96 -96t36.5 -153.5v-83q0 -97 -39 -159t-103 -96z" />
    <glyph glyph-name="plusminus" unicode="&#xb1;" 
d="M1593 361v-361h-1573v361h1573zM577 492v262h-557v361h557v262h459v-262h557v-361h-557v-262h-459z" />
    <glyph glyph-name="uni00B2" unicode="&#xb2;" horiz-adv-x="1136" 
d="M1116 1111q0 -67 -35 -113t-91.5 -76.5t-122 -50.5t-128.5 -35q-67 -17 -117.5 -33.5t-69.5 -40.5h550v-247h-1082v146q0 74 48.5 126.5t125.5 89t166 62.5t173 46q69 16 124 31.5t88 33t33 40.5q0 27 -43 45t-133 18q-63 0 -115.5 -8.5t-83.5 -30t-31 -61.5h-338
q0 109 40 177.5t114 105.5t175.5 50.5t225.5 13.5q166 0 284 -28t180.5 -91.5t62.5 -169.5z" />
    <glyph glyph-name="uni00B3" unicode="&#xb3;" horiz-adv-x="1110" 
d="M1090 1142q0 -64 -34.5 -109t-98.5 -75q64 -31 98.5 -76t34.5 -109q0 -132 -136.5 -195t-384.5 -63q-164 0 -287.5 26t-192.5 98.5t-69 213.5h330q0 -44 31 -62.5t83.5 -22t117.5 -3.5q93 0 135.5 15.5t42.5 49.5q0 27 -19 38t-81.5 13.5t-191.5 2.5v147q129 0 191.5 2.5
t81.5 13.5t19 38q0 67 -178 65q-65 0 -117.5 -3.5t-83.5 -22t-31 -62.5h-330q0 141 69 213.5t192.5 98.5t287.5 26q248 0 384.5 -63t136.5 -195z" />
    <glyph glyph-name="acute" unicode="&#xb4;" horiz-adv-x="728" 
d="M20 918v229l688 328v-328z" />
    <glyph glyph-name="mu" unicode="&#xb5;" horiz-adv-x="1745" 
d="M544 148v-349h-524v1639h524v-705q0 -81 28 -135t75 -85.5t105.5 -44.5t119.5 -13q62 0 120.5 8t105 33t74.5 74t28 130v738h525v-819q0 -153 -50.5 -253.5t-136.5 -162t-195.5 -92t-231 -40.5t-239.5 -10q-191 0 -328 87z" />
    <glyph glyph-name="paragraph" unicode="&#xb6;" 
d="M1020 0h-394v590h-196q-85 0 -159.5 32t-130.5 88t-88 130.5t-32 159.5q0 113 55.5 206t148.5 148.5t206 55.5h590v-1410zM1593 0h-393v1410h393v-1410z" />
    <glyph glyph-name="periodcentered" unicode="&#xb7;" horiz-adv-x="486" 
d="M466 884v-334h-446v334h446z" />
    <glyph glyph-name="periodcentered" unicode="&#x2219;" horiz-adv-x="486" 
d="M466 884v-334h-446v334h446z" />
    <glyph glyph-name="cedilla" unicode="&#xb8;" horiz-adv-x="630" 
d="M406 -99q70 0 110.5 -17.5t61.5 -47.5q20 -30 26 -68t6 -80q0 -55 -12.5 -104t-55.5 -79t-136 -30h-386v174h321q60 0 75 16q15 15 15 50q0 34 -15 50t-75 16h-92h-160h-3l98 218h197l-59 -98h84z" />
    <glyph glyph-name="uni00B9" unicode="&#xb9;" horiz-adv-x="990" 
d="M678 1400v-626h292v-259h-950v259h313v345l-270 -86v281l270 86h345z" />
    <glyph glyph-name="ordmasculine" unicode="&#xba;" horiz-adv-x="1110" 
d="M731 927v61q0 78 -51 108q-41 27 -125 27q-91 0 -133 -32.5t-42 -102.5v-61q0 -78 50 -108q42 -27 125 -27q91 0 133.5 32.5t42.5 102.5zM764 1380q89 -19 163 -62.5t118.5 -118.5t44.5 -190v-103q0 -119 -48 -195.5t-127 -119.5q-69 -38 -151 -56q-106 -20 -209 -20
t-208 20q-90 20 -163.5 63t-118.5 118t-45 190v103q0 119 48 195.5t127 119.5q69 38 152 56q105 20 208 20t209 -20z" />
    <glyph glyph-name="guillemotright" unicode="&#xbb;" horiz-adv-x="1737" 
d="M701 82l492 590l-492 590h524l492 -590l-492 -590h-524zM20 82l492 590l-492 590h524l492 -590l-492 -590h-524z" />
    <glyph glyph-name="onequarter" unicode="&#xbc;" horiz-adv-x="2834" 
d="M970 849v-259h-950v259h313v345l-270 -86v281l270 86h345v-626h292zM1423 1475h491l-524 -1475h-492zM2339 410v222l-302 -222h302zM2685 885v-475h129v-259h-129v-151h-346v151h-647v259l647 475h346z" />
    <glyph glyph-name="onehalf" unicode="&#xbd;" horiz-adv-x="2873" 
d="M2853 596q0 -67 -35 -113t-91 -76.5t-122 -50.5t-129 -35q-67 -17 -117 -33.5t-69 -40.5h549v-247h-1082v146q0 74 48.5 126.5t125.5 89t166 62.5t174 46q68 16 123.5 31.5t88 33t32.5 40.5q0 27 -42.5 45t-132.5 18q-64 0 -116.5 -8.5t-83.5 -30t-31 -61.5h-338
q0 109 40.5 177.5t114 105.5t175.5 50.5t225 13.5q166 0 284 -28t180.5 -91.5t62.5 -169.5zM970 849v-259h-950v259h313v345l-270 -86v281l270 86h345v-626h292zM1423 1475h491l-524 -1475h-492z" />
    <glyph glyph-name="threequarters" unicode="&#xbe;" horiz-adv-x="2900" 
d="M1090 848q0 -132 -136.5 -195t-384.5 -63q-164 0 -287.5 26t-192.5 98.5t-69 213.5h330q0 -44 31 -62.5t83.5 -22t117.5 -3.5q93 0 135.5 16t42.5 49q0 27 -19 38t-81.5 13.5t-191.5 2.5v147q129 0 191.5 2.5t81.5 13.5t19 38q0 67 -178 65q-65 0 -117.5 -3.5t-83.5 -22
t-31 -62.5h-330q0 141 69 213.5t192.5 98.5t287.5 26q248 0 384.5 -63t136.5 -195q0 -64 -34.5 -109t-98.5 -75q64 -31 98.5 -76t34.5 -109zM1488 1475h492l-525 -1475h-491zM2405 410v222l-302 -222h302zM2750 885v-475h130v-259h-130v-151h-345v151h-648v259l648 475h345z
" />
    <glyph glyph-name="questiondown" unicode="&#xbf;" horiz-adv-x="1646" 
d="M1200 -42h425q1 -16 1 -33q0 -51 -6.5 -103.5t-25.5 -102t-57 -92.5q-55 -64 -166.5 -104t-301.5 -40h-492q-152 0 -253 26t-162 70.5t-92 101.5t-40.5 120t-9.5 124q0 78 24 126.5t64.5 77t90.5 45.5t104 29q52 12 100.5 28t88 43.5t62.5 73t23 118.5h525
q0 -106 -31 -179.5t-81.5 -121.5t-113 -77.5t-128 -46.5t-124.5 -28q-51 -10 -91 -21t-63.5 -26t-23.5 -41q0 -63 45 -83.5t168 -20.5h328q123 0 168 20t45 84v14v13.5v5.5zM1102 958v-328h-525v328h525z" />
    <glyph glyph-name="Agrave" unicode="&#xc0;" horiz-adv-x="2105" 
d="M868 557h369l-184 397zM741 1343h623l721 -1344h-590l-106 230h-673l-106 -230h-590zM1282 1476l-688 229v328l688 -328v-229z" />
    <glyph glyph-name="Aacute" unicode="&#xc1;" horiz-adv-x="2105" 
d="M868 557h369l-184 397zM741 1343h623l721 -1344h-590l-106 230h-673l-106 -230h-590zM824 1476v229l688 328v-328z" />
    <glyph glyph-name="Acircumflex" unicode="&#xc2;" horiz-adv-x="2105" 
d="M868 557h369l-184 397zM741 1343h623l721 -1344h-590l-106 230h-673l-106 -230h-590zM643 1736l410 230l410 -230v-262l-410 197l-410 -197v262z" />
    <glyph glyph-name="Atilde" unicode="&#xc3;" horiz-adv-x="2105" 
d="M868 557h369l-184 397zM741 1343h623l721 -1344h-590l-106 230h-673l-106 -230h-590zM1274 1841v15h221v-150v-16q-10 -108 -101 -171q-98 -61 -207 -26l-270 123q-38 16 -66 1q-17 -9 -19 -30q0 -3 -0.5 -17t-0.5 -32v-31.5v-13.5v-16h-221v150q0 8 1 16q9 108 100 171
q98 61 207 26l270 -123q38 -16 67 -1q16 10 18 31q1 2 1 16.5v32v31.5v14z" />
    <glyph glyph-name="Adieresis" unicode="&#xc4;" horiz-adv-x="2105" 
d="M868 557h369l-184 397zM741 1343h623l721 -1344h-590l-106 230h-673l-106 -230h-590zM1135 1474v287h328v-287h-328zM643 1474v287h328v-287h-328z" />
    <glyph glyph-name="Aring" unicode="&#xc5;" horiz-adv-x="2105" 
d="M868 557h369l-184 397zM741 1343h623l721 -1344h-590l-106 230h-673l-106 -230h-590zM1190 1714v36q0 48 -41 68q-32 16 -96 16q-141 0 -136 -84v-36q0 -48 40 -68q33 -16 96 -16q142 0 137 84zM1207 1978q65 -11 119.5 -36.5t87.5 -69t33 -110.5v-60q0 -70 -35.5 -114.5
t-93.5 -69.5q-51 -22 -111 -32q-78 -12 -154 -12t-153 12q-66 11 -120 36.5t-87 69t-33 110.5v60q0 70 35.5 114.5t93.5 69.5q51 22 111 32q77 12 153 12t154 -12z" />
    <glyph glyph-name="AE" unicode="&#xc6;" horiz-adv-x="2892" 
d="M1066 983l-198 -426h529v279v147h-331zM1397 229h-681l-106 -229h-590l721 1344h2131v-344h-951v-172h951v-312h-951v-172h951v-344h-951h-524v229z" />
    <glyph glyph-name="Ccedilla" unicode="&#xc7;" horiz-adv-x="1873" 
d="M1316 558v0h537q-14 -169 -89 -283.5t-199 -182t-284.5 -96t-342.5 -28.5v0q-190 0 -356.5 31.5t-292.5 106t-197.5 201.5t-71.5 317v98q0 190 71.5 316.5t197.5 201t292.5 106.5t356.5 32v0q182 0 342.5 -29t284.5 -96.5t199 -181.5t89 -283h-537q-24 65 -79 101
t-132 49t-167 13v0q-108 0 -197.5 -20t-142.5 -76.5t-53 -165.5v-33q0 -108 53 -164.5t142.5 -77t197.5 -20.5v0q90 0 167 13.5t132 49t79 101.5zM1029 -99q70 0 110.5 -17.5t61.5 -47.5q20 -30 26 -68t6 -80q0 -55 -12.5 -104t-55.5 -79t-136 -30h-386v174h321q60 0 75 16
q15 15 15 50q0 34 -15 50t-75 16h-92h-160h-3l98 218h197l-59 -98h84z" />
    <glyph glyph-name="Egrave" unicode="&#xc8;" 
d="M20 1343h1573v-344h-1049v-172h1049v-311h-1049v-172h1049v-345h-1573v1344zM1036 1476l-688 229v328l688 -328v-229z" />
    <glyph glyph-name="Eacute" unicode="&#xc9;" 
d="M20 1343h1573v-344h-1049v-172h1049v-311h-1049v-172h1049v-345h-1573v1344zM578 1476v229l688 328v-328z" />
    <glyph glyph-name="Ecircumflex" unicode="&#xca;" 
d="M20 1343h1573v-344h-1049v-172h1049v-311h-1049v-172h1049v-345h-1573v1344zM397 1736l410 230l410 -230v-262l-410 197l-410 -197v262z" />
    <glyph glyph-name="Edieresis" unicode="&#xcb;" 
d="M20 1343h1573v-344h-1049v-172h1049v-311h-1049v-172h1049v-345h-1573v1344zM889 1474v287h328v-287h-328zM397 1474v287h328v-287h-328z" />
    <glyph glyph-name="Igrave" unicode="&#xcc;" horiz-adv-x="564" 
d="M544 1345v-1344h-524v1344h524zM511 1476l-688 229v328l688 -328v-229z" />
    <glyph glyph-name="Iacute" unicode="&#xcd;" horiz-adv-x="564" 
d="M544 1345v-1344h-524v1344h524zM53 1476v229l688 328v-328z" />
    <glyph glyph-name="Icircumflex" unicode="&#xce;" horiz-adv-x="564" 
d="M544 1345v-1344h-524v1344h524zM-128 1736l410 230l410 -230v-262l-410 197l-410 -197v262z" />
    <glyph glyph-name="Idieresis" unicode="&#xcf;" horiz-adv-x="564" 
d="M544 1345v-1344h-524v1344h524zM364 1474v287h328v-287h-328zM-128 1474v287h328v-287h-328z" />
    <glyph glyph-name="Eth" unicode="&#xd0;" horiz-adv-x="2171" 
d="M1413 426q68 0 115.5 33t72.5 89t25 124t-25 124t-72.5 89t-115.5 33h-573v-148h360v-196h-360v-148h573zM1512 1344q185 0 329.5 -90.5t227 -243t82.5 -338.5v0q0 -186 -82.5 -338.5t-227 -243t-329.5 -90.5h-672h-525v426v148h-295v196h295v148v426h525h672z" />
    <glyph glyph-name="Ntilde" unicode="&#xd1;" horiz-adv-x="1876" 
d="M1331 1345h525v-1344h-590l-722 821v-821h-524v1344h721l590 -712v712zM1159 1841v15h221v-150v-16q-10 -108 -101 -171q-98 -61 -207 -26l-270 123q-38 16 -66 1q-17 -9 -19 -30q0 -3 -0.5 -17t-0.5 -32v-31.5v-13.5v-16h-221v150q0 8 1 16q9 108 100 171q98 61 207 26
l270 -123q38 -16 67 -1q16 10 18 31q1 2 1 16.5v32v31.5v14z" />
    <glyph glyph-name="Ograve" unicode="&#xd2;" horiz-adv-x="1875" 
d="M938 1378v0q190 0 356.5 -31.5t292 -106t197 -201.5t71.5 -317v-98q0 -190 -71.5 -316.5t-197 -201.5t-292 -106.5t-356.5 -31.5v0q-190 0 -357 31.5t-292.5 106.5t-197 201.5t-71.5 316.5v98q0 190 71.5 317t197 201.5t292.5 106t357 31.5v0zM1331 657v0v33
q0 108 -53 164.5t-142.5 77t-197.5 20.5v0q-109 0 -198.5 -20.5t-142.5 -77t-53 -164.5v-33q0 -109 53 -165.5t142.5 -77t198.5 -20.5v0q108 0 197.5 20.5t142.5 77t53 165.5zM1167 1476l-688 229v328l688 -328v-229z" />
    <glyph glyph-name="Oacute" unicode="&#xd3;" horiz-adv-x="1875" 
d="M938 1378v0q190 0 356.5 -31.5t292 -106t197 -201.5t71.5 -317v-98q0 -190 -71.5 -316.5t-197 -201.5t-292 -106.5t-356.5 -31.5v0q-190 0 -357 31.5t-292.5 106.5t-197 201.5t-71.5 316.5v98q0 190 71.5 317t197 201.5t292.5 106t357 31.5v0zM1331 657v0v33
q0 108 -53 164.5t-142.5 77t-197.5 20.5v0q-109 0 -198.5 -20.5t-142.5 -77t-53 -164.5v-33q0 -109 53 -165.5t142.5 -77t198.5 -20.5v0q108 0 197.5 20.5t142.5 77t53 165.5zM709 1476v229l688 328v-328z" />
    <glyph glyph-name="Ocircumflex" unicode="&#xd4;" horiz-adv-x="1875" 
d="M938 1378v0q190 0 356.5 -31.5t292 -106t197 -201.5t71.5 -317v-98q0 -190 -71.5 -316.5t-197 -201.5t-292 -106.5t-356.5 -31.5v0q-190 0 -357 31.5t-292.5 106.5t-197 201.5t-71.5 316.5v98q0 190 71.5 317t197 201.5t292.5 106t357 31.5v0zM1331 657v0v33
q0 108 -53 164.5t-142.5 77t-197.5 20.5v0q-109 0 -198.5 -20.5t-142.5 -77t-53 -164.5v-33q0 -109 53 -165.5t142.5 -77t198.5 -20.5v0q108 0 197.5 20.5t142.5 77t53 165.5zM528 1736l410 230l410 -230v-262l-410 197l-410 -197v262z" />
    <glyph glyph-name="Otilde" unicode="&#xd5;" horiz-adv-x="1875" 
d="M938 1378v0q190 0 356.5 -31.5t292 -106t197 -201.5t71.5 -317v-98q0 -190 -71.5 -316.5t-197 -201.5t-292 -106.5t-356.5 -31.5v0q-190 0 -357 31.5t-292.5 106.5t-197 201.5t-71.5 316.5v98q0 190 71.5 317t197 201.5t292.5 106t357 31.5v0zM1331 657v0v33
q0 108 -53 164.5t-142.5 77t-197.5 20.5v0q-109 0 -198.5 -20.5t-142.5 -77t-53 -164.5v-33q0 -109 53 -165.5t142.5 -77t198.5 -20.5v0q108 0 197.5 20.5t142.5 77t53 165.5zM1159 1841v15h221v-150v-16q-10 -108 -101 -171q-98 -61 -207 -26l-270 123q-38 16 -66 1
q-17 -9 -19 -30q0 -3 -0.5 -17t-0.5 -32v-31.5v-13.5v-16h-221v150q0 8 1 16q9 108 100 171q98 61 207 26l270 -123q38 -16 67 -1q16 10 18 31q1 2 1 16.5v32v31.5v14z" />
    <glyph glyph-name="Odieresis" unicode="&#xd6;" horiz-adv-x="1875" 
d="M938 1378v0q190 0 356.5 -31.5t292 -106t197 -201.5t71.5 -317v-98q0 -190 -71.5 -316.5t-197 -201.5t-292 -106.5t-356.5 -31.5v0q-190 0 -357 31.5t-292.5 106.5t-197 201.5t-71.5 316.5v98q0 190 71.5 317t197 201.5t292.5 106t357 31.5v0zM1331 657v0v33
q0 108 -53 164.5t-142.5 77t-197.5 20.5v0q-109 0 -198.5 -20.5t-142.5 -77t-53 -164.5v-33q0 -109 53 -165.5t142.5 -77t198.5 -20.5v0q108 0 197.5 20.5t142.5 77t53 165.5zM1020 1474v287h328v-287h-328zM528 1474v287h328v-287h-328z" />
    <glyph glyph-name="multiply" unicode="&#xd7;" horiz-adv-x="1629" 
d="M453 672l-433 282l214 330l580 -377l581 377l214 -330l-433 -282l433 -281l-214 -330l-581 377l-580 -377l-214 330z" />
    <glyph glyph-name="Oslash" unicode="&#xd8;" horiz-adv-x="1876" 
d="M1331 689v33q0 70 -29 118t-76 77l-250 -490q61 3 123 16t114.5 42.5t85 78.5t32.5 125zM649 493l250 490q-60 -2 -122 -15.5t-114.5 -42.5t-85.5 -78.5t-33 -124.5v-33q0 -71 29 -118.5t76 -77.5zM1856 656q0 -127 -40.5 -225t-110.5 -170.5t-161 -122.5
q-99 -55 -213 -86q-98 -27 -198.5 -39.5t-194.5 -12.5q-84 0 -174 10l-56 -108h-360l94 185q-119 45 -214 120.5t-151.5 186.5t-56.5 262v98q0 127 40.5 225t110.5 170.5t160 122.5q100 55 213 86q99 27 199.5 39.5t194.5 12.5q84 0 174 -10l55 108h361l-94 -184
q118 -46 213.5 -121.5t152 -186t56.5 -262.5v-98z" />
    <glyph glyph-name="Ugrave" unicode="&#xd9;" horiz-adv-x="1876" 
d="M1331 1345v0h525v-722q0 -190 -71.5 -316.5t-197.5 -201t-292.5 -106t-356.5 -31.5v0q-190 0 -356.5 31.5t-292.5 106t-197.5 201t-71.5 316.5v722h524v-689q0 -109 53.5 -165.5t142.5 -76.5t198 -20v0q108 0 197.5 20t142.5 76.5t53 165.5v689zM1167 1476l-688 229v328
l688 -328v-229z" />
    <glyph glyph-name="Uacute" unicode="&#xda;" horiz-adv-x="1876" 
d="M1331 1345v0h525v-722q0 -190 -71.5 -316.5t-197.5 -201t-292.5 -106t-356.5 -31.5v0q-190 0 -356.5 31.5t-292.5 106t-197.5 201t-71.5 316.5v722h524v-689q0 -109 53.5 -165.5t142.5 -76.5t198 -20v0q108 0 197.5 20t142.5 76.5t53 165.5v689zM709 1476v229l688 328
v-328z" />
    <glyph glyph-name="Ucircumflex" unicode="&#xdb;" horiz-adv-x="1876" 
d="M1331 1345v0h525v-722q0 -190 -71.5 -316.5t-197.5 -201t-292.5 -106t-356.5 -31.5v0q-190 0 -356.5 31.5t-292.5 106t-197.5 201t-71.5 316.5v722h524v-689q0 -109 53.5 -165.5t142.5 -76.5t198 -20v0q108 0 197.5 20t142.5 76.5t53 165.5v689zM528 1736l410 230
l410 -230v-262l-410 197l-410 -197v262z" />
    <glyph glyph-name="Udieresis" unicode="&#xdc;" horiz-adv-x="1876" 
d="M1331 1345v0h525v-722q0 -190 -71.5 -316.5t-197.5 -201t-292.5 -106t-356.5 -31.5v0q-190 0 -356.5 31.5t-292.5 106t-197.5 201t-71.5 316.5v722h524v-689q0 -109 53.5 -165.5t142.5 -76.5t198 -20v0q108 0 197.5 20t142.5 76.5t53 165.5v689zM1020 1474v287h328v-287
h-328zM528 1474v287h328v-287h-328z" />
    <glyph glyph-name="Yacute" unicode="&#xdd;" horiz-adv-x="2072" 
d="M1036 861l394 482h622l-754 -885v-459h-524v459l-754 885h623zM807 1476v229l688 328v-328z" />
    <glyph glyph-name="Thorn" unicode="&#xde;" horiz-adv-x="1515" 
d="M807 633q73 0 113.5 11.5t58.5 30t21 39.5t3 40t-3 40t-21 39.5t-58.5 30t-113.5 11.5h-295v-242h295zM20 0v1492h492v-246h377q161 0 269.5 -29t176 -78.5t102 -112.5t46.5 -133t12 -139t-12 -139t-46.5 -133t-102 -112.5t-176 -78.5t-269.5 -29h-377v-262h-492z" />
    <glyph glyph-name="germandbls" unicode="&#xdf;" horiz-adv-x="2105" 
d="M1831 728q114 -37 184 -122t70 -212q0 -118 -57.5 -198.5t-154 -121.5t-214.5 -41h-882l128 320h607q33 0 57 28t24 62t-24 62t-57 28h-450l138 344h213q34 0 58 28t24 62t-24 62.5t-58 28.5h-406l-463 -1156h-524l590 1475h951q117 0 214 -41t154.5 -121.5t57.5 -197.5
q0 -98 -42 -170.5t-114 -118.5z" />
    <glyph glyph-name="agrave" unicode="&#xe0;" horiz-adv-x="2105" 
d="M868 557h369l-184 397zM741 1343h623l721 -1344h-590l-106 230h-673l-106 -230h-590zM1282 1476l-688 229v328l688 -328v-229z" />
    <glyph glyph-name="aacute" unicode="&#xe1;" horiz-adv-x="2105" 
d="M868 557h369l-184 397zM741 1343h623l721 -1344h-590l-106 230h-673l-106 -230h-590zM824 1476v229l688 328v-328z" />
    <glyph glyph-name="acircumflex" unicode="&#xe2;" horiz-adv-x="2105" 
d="M868 557h369l-184 397zM741 1343h623l721 -1344h-590l-106 230h-673l-106 -230h-590zM643 1736l410 230l410 -230v-262l-410 197l-410 -197v262z" />
    <glyph glyph-name="atilde" unicode="&#xe3;" horiz-adv-x="2105" 
d="M868 557h369l-184 397zM741 1343h623l721 -1344h-590l-106 230h-673l-106 -230h-590zM1274 1841v15h221v-150v-16q-10 -108 -101 -171q-98 -61 -207 -26l-270 123q-38 16 -66 1q-17 -9 -19 -30q0 -3 -0.5 -17t-0.5 -32v-31.5v-13.5v-16h-221v150q0 8 1 16q9 108 100 171
q98 61 207 26l270 -123q38 -16 67 -1q16 10 18 31q1 2 1 16.5v32v31.5v14z" />
    <glyph glyph-name="adieresis" unicode="&#xe4;" horiz-adv-x="2105" 
d="M868 557h369l-184 397zM741 1343h623l721 -1344h-590l-106 230h-673l-106 -230h-590zM1135 1474v287h328v-287h-328zM643 1474v287h328v-287h-328z" />
    <glyph glyph-name="aring" unicode="&#xe5;" horiz-adv-x="2105" 
d="M868 557h369l-184 397zM741 1343h623l721 -1344h-590l-106 230h-673l-106 -230h-590zM1190 1714v36q0 48 -41 68q-32 16 -96 16q-141 0 -136 -84v-36q0 -48 40 -68q33 -16 96 -16q142 0 137 84zM1207 1978q65 -11 119.5 -36.5t87.5 -69t33 -110.5v-60q0 -70 -35.5 -114.5
t-93.5 -69.5q-51 -22 -111 -32q-78 -12 -154 -12t-153 12q-66 11 -120 36.5t-87 69t-33 110.5v60q0 70 35.5 114.5t93.5 69.5q51 22 111 32q77 12 153 12t154 -12z" />
    <glyph glyph-name="ae" unicode="&#xe6;" horiz-adv-x="2892" 
d="M1066 983l-198 -426h529v279v147h-331zM1397 229h-681l-106 -229h-590l721 1344h2131v-344h-951v-172h951v-312h-951v-172h951v-344h-951h-524v229z" />
    <glyph glyph-name="ccedilla" unicode="&#xe7;" horiz-adv-x="1873" 
d="M1316 558v0h537q-14 -169 -89 -283.5t-199 -182t-284.5 -96t-342.5 -28.5v0q-190 0 -356.5 31.5t-292.5 106t-197.5 201.5t-71.5 317v98q0 190 71.5 316.5t197.5 201t292.5 106.5t356.5 32v0q182 0 342.5 -29t284.5 -96.5t199 -181.5t89 -283h-537q-24 65 -79 101
t-132 49t-167 13v0q-108 0 -197.5 -20t-142.5 -76.5t-53 -165.5v-33q0 -108 53 -164.5t142.5 -77t197.5 -20.5v0q90 0 167 13.5t132 49t79 101.5zM1029 -99q70 0 110.5 -17.5t61.5 -47.5q20 -30 26 -68t6 -80q0 -55 -12.5 -104t-55.5 -79t-136 -30h-386v174h321q60 0 75 16
q15 15 15 50q0 34 -15 50t-75 16h-92h-160h-3l98 218h197l-59 -98h84z" />
    <glyph glyph-name="egrave" unicode="&#xe8;" 
d="M20 1343h1573v-344h-1049v-172h1049v-311h-1049v-172h1049v-345h-1573v1344zM1036 1476l-688 229v328l688 -328v-229z" />
    <glyph glyph-name="eacute" unicode="&#xe9;" 
d="M20 1343h1573v-344h-1049v-172h1049v-311h-1049v-172h1049v-345h-1573v1344zM578 1476v229l688 328v-328z" />
    <glyph glyph-name="ecircumflex" unicode="&#xea;" 
d="M20 1343h1573v-344h-1049v-172h1049v-311h-1049v-172h1049v-345h-1573v1344zM397 1736l410 230l410 -230v-262l-410 197l-410 -197v262z" />
    <glyph glyph-name="edieresis" unicode="&#xeb;" 
d="M20 1343h1573v-344h-1049v-172h1049v-311h-1049v-172h1049v-345h-1573v1344zM889 1474v287h328v-287h-328zM397 1474v287h328v-287h-328z" />
    <glyph glyph-name="igrave" unicode="&#xec;" horiz-adv-x="761" 
d="M741 1345v-1344h-524v1344h524zM708 1476l-688 229v328l688 -328v-229z" />
    <glyph glyph-name="iacute" unicode="&#xed;" horiz-adv-x="761" 
d="M544 1345v-1344h-524v1344h524zM53 1476v229l688 328v-328z" />
    <glyph glyph-name="icircumflex" unicode="&#xee;" horiz-adv-x="860" 
d="M692 1345v-1344h-524v1344h524zM20 1736l410 230l410 -230v-262l-410 197l-410 -197v262z" />
    <glyph glyph-name="idieresis" unicode="&#xef;" horiz-adv-x="860" 
d="M692 1345v-1344h-524v1344h524zM512 1474v287h328v-287h-328zM20 1474v287h328v-287h-328z" />
    <glyph glyph-name="eth" unicode="&#xf0;" horiz-adv-x="2171" 
d="M1413 426q68 0 115.5 33t72.5 89t25 124t-25 124t-72.5 89t-115.5 33h-573v-148h360v-196h-360v-148h573zM1512 1344q185 0 329.5 -90.5t227 -243t82.5 -338.5v0q0 -186 -82.5 -338.5t-227 -243t-329.5 -90.5h-672h-525v426v148h-295v196h295v148v426h525h672z" />
    <glyph glyph-name="ntilde" unicode="&#xf1;" horiz-adv-x="1876" 
d="M1331 1345h525v-1344h-590l-722 821v-821h-524v1344h721l590 -712v712zM1159 1841v15h221v-150v-16q-10 -108 -101 -171q-98 -61 -207 -26l-270 123q-38 16 -66 1q-17 -9 -19 -30q0 -3 -0.5 -17t-0.5 -32v-31.5v-13.5v-16h-221v150q0 8 1 16q9 108 100 171q98 61 207 26
l270 -123q38 -16 67 -1q16 10 18 31q1 2 1 16.5v32v31.5v14z" />
    <glyph glyph-name="ograve" unicode="&#xf2;" horiz-adv-x="1875" 
d="M938 1378v0q190 0 356.5 -31.5t292 -106t197 -201.5t71.5 -317v-98q0 -190 -71.5 -316.5t-197 -201.5t-292 -106.5t-356.5 -31.5v0q-190 0 -357 31.5t-292.5 106.5t-197 201.5t-71.5 316.5v98q0 190 71.5 317t197 201.5t292.5 106t357 31.5v0zM1331 657v0v33
q0 108 -53 164.5t-142.5 77t-197.5 20.5v0q-109 0 -198.5 -20.5t-142.5 -77t-53 -164.5v-33q0 -109 53 -165.5t142.5 -77t198.5 -20.5v0q108 0 197.5 20.5t142.5 77t53 165.5zM1167 1476l-688 229v328l688 -328v-229z" />
    <glyph glyph-name="oacute" unicode="&#xf3;" horiz-adv-x="1875" 
d="M938 1378v0q190 0 356.5 -31.5t292 -106t197 -201.5t71.5 -317v-98q0 -190 -71.5 -316.5t-197 -201.5t-292 -106.5t-356.5 -31.5v0q-190 0 -357 31.5t-292.5 106.5t-197 201.5t-71.5 316.5v98q0 190 71.5 317t197 201.5t292.5 106t357 31.5v0zM1331 657v0v33
q0 108 -53 164.5t-142.5 77t-197.5 20.5v0q-109 0 -198.5 -20.5t-142.5 -77t-53 -164.5v-33q0 -109 53 -165.5t142.5 -77t198.5 -20.5v0q108 0 197.5 20.5t142.5 77t53 165.5zM709 1476v229l688 328v-328z" />
    <glyph glyph-name="ocircumflex" unicode="&#xf4;" horiz-adv-x="1875" 
d="M938 1378v0q190 0 356.5 -31.5t292 -106t197 -201.5t71.5 -317v-98q0 -190 -71.5 -316.5t-197 -201.5t-292 -106.5t-356.5 -31.5v0q-190 0 -357 31.5t-292.5 106.5t-197 201.5t-71.5 316.5v98q0 190 71.5 317t197 201.5t292.5 106t357 31.5v0zM1331 657v0v33
q0 108 -53 164.5t-142.5 77t-197.5 20.5v0q-109 0 -198.5 -20.5t-142.5 -77t-53 -164.5v-33q0 -109 53 -165.5t142.5 -77t198.5 -20.5v0q108 0 197.5 20.5t142.5 77t53 165.5zM528 1736l410 230l410 -230v-262l-410 197l-410 -197v262z" />
    <glyph glyph-name="otilde" unicode="&#xf5;" horiz-adv-x="1875" 
d="M938 1378v0q190 0 356.5 -31.5t292 -106t197 -201.5t71.5 -317v-98q0 -190 -71.5 -316.5t-197 -201.5t-292 -106.5t-356.5 -31.5v0q-190 0 -357 31.5t-292.5 106.5t-197 201.5t-71.5 316.5v98q0 190 71.5 317t197 201.5t292.5 106t357 31.5v0zM1331 657v0v33
q0 108 -53 164.5t-142.5 77t-197.5 20.5v0q-109 0 -198.5 -20.5t-142.5 -77t-53 -164.5v-33q0 -109 53 -165.5t142.5 -77t198.5 -20.5v0q108 0 197.5 20.5t142.5 77t53 165.5zM1159 1841v15h221v-150v-16q-10 -108 -101 -171q-98 -61 -207 -26l-270 123q-38 16 -66 1
q-17 -9 -19 -30q0 -3 -0.5 -17t-0.5 -32v-31.5v-13.5v-16h-221v150q0 8 1 16q9 108 100 171q98 61 207 26l270 -123q38 -16 67 -1q16 10 18 31q1 2 1 16.5v32v31.5v14z" />
    <glyph glyph-name="odieresis" unicode="&#xf6;" horiz-adv-x="1875" 
d="M938 1378v0q190 0 356.5 -31.5t292 -106t197 -201.5t71.5 -317v-98q0 -190 -71.5 -316.5t-197 -201.5t-292 -106.5t-356.5 -31.5v0q-190 0 -357 31.5t-292.5 106.5t-197 201.5t-71.5 316.5v98q0 190 71.5 317t197 201.5t292.5 106t357 31.5v0zM1331 657v0v33
q0 108 -53 164.5t-142.5 77t-197.5 20.5v0q-109 0 -198.5 -20.5t-142.5 -77t-53 -164.5v-33q0 -109 53 -165.5t142.5 -77t198.5 -20.5v0q108 0 197.5 20.5t142.5 77t53 165.5zM1020 1474v287h328v-287h-328zM528 1474v287h328v-287h-328z" />
    <glyph glyph-name="divide" unicode="&#xf7;" 
d="M20 479v393h1573v-393h-1573zM1036 20h-459v328h459v-328zM577 1331h459v-328h-459v328z" />
    <glyph glyph-name="oslash" unicode="&#xf8;" horiz-adv-x="1876" 
d="M1331 689v33q0 70 -29 118t-76 77l-250 -490q61 3 123 16t114.5 42.5t85 78.5t32.5 125zM649 493l250 490q-60 -2 -122 -15.5t-114.5 -42.5t-85.5 -78.5t-33 -124.5v-33q0 -71 29 -118.5t76 -77.5zM1856 656q0 -127 -40.5 -225t-110.5 -170.5t-161 -122.5
q-99 -55 -213 -86q-98 -27 -198.5 -39.5t-194.5 -12.5q-84 0 -174 10l-56 -108h-360l94 185q-119 45 -214 120.5t-151.5 186.5t-56.5 262v98q0 127 40.5 225t110.5 170.5t160 122.5q100 55 213 86q99 27 199.5 39.5t194.5 12.5q84 0 174 -10l55 108h361l-94 -184
q118 -46 213.5 -121.5t152 -186t56.5 -262.5v-98z" />
    <glyph glyph-name="ugrave" unicode="&#xf9;" horiz-adv-x="1876" 
d="M1331 1345v0h525v-722q0 -190 -71.5 -316.5t-197.5 -201t-292.5 -106t-356.5 -31.5v0q-190 0 -356.5 31.5t-292.5 106t-197.5 201t-71.5 316.5v722h524v-689q0 -109 53.5 -165.5t142.5 -76.5t198 -20v0q108 0 197.5 20t142.5 76.5t53 165.5v689zM1167 1476l-688 229v328
l688 -328v-229z" />
    <glyph glyph-name="uacute" unicode="&#xfa;" horiz-adv-x="1876" 
d="M1331 1345v0h525v-722q0 -190 -71.5 -316.5t-197.5 -201t-292.5 -106t-356.5 -31.5v0q-190 0 -356.5 31.5t-292.5 106t-197.5 201t-71.5 316.5v722h524v-689q0 -109 53.5 -165.5t142.5 -76.5t198 -20v0q108 0 197.5 20t142.5 76.5t53 165.5v689zM709 1476v229l688 328
v-328z" />
    <glyph glyph-name="ucircumflex" unicode="&#xfb;" horiz-adv-x="1876" 
d="M1331 1345v0h525v-722q0 -190 -71.5 -316.5t-197.5 -201t-292.5 -106t-356.5 -31.5v0q-190 0 -356.5 31.5t-292.5 106t-197.5 201t-71.5 316.5v722h524v-689q0 -109 53.5 -165.5t142.5 -76.5t198 -20v0q108 0 197.5 20t142.5 76.5t53 165.5v689zM528 1736l410 230
l410 -230v-262l-410 197l-410 -197v262z" />
    <glyph glyph-name="udieresis" unicode="&#xfc;" horiz-adv-x="1876" 
d="M1331 1345v0h525v-722q0 -190 -71.5 -316.5t-197.5 -201t-292.5 -106t-356.5 -31.5v0q-190 0 -356.5 31.5t-292.5 106t-197.5 201t-71.5 316.5v722h524v-689q0 -109 53.5 -165.5t142.5 -76.5t198 -20v0q108 0 197.5 20t142.5 76.5t53 165.5v689zM1020 1474v287h328v-287
h-328zM528 1474v287h328v-287h-328z" />
    <glyph glyph-name="yacute" unicode="&#xfd;" horiz-adv-x="2072" 
d="M1036 861l394 482h622l-754 -885v-459h-524v459l-754 885h623zM807 1476v229l688 328v-328z" />
    <glyph glyph-name="thorn" unicode="&#xfe;" horiz-adv-x="1515" 
d="M512 708q61 -68 135.5 -105.5t175.5 -37.5q163 0 205 36q25 19 33 48.5t8 72.5q0 55 -16 89.5t-68.5 50.5t-161.5 16q-101 0 -175 -38q-75 -37 -136 -106v0v-25v-1zM20 -57v1557h492v-412q174 125 393 125q190 0 306.5 -38.5t178.5 -106.5t83.5 -157t21.5 -189
q0 -101 -21.5 -190t-83.5 -157t-178.5 -106.5t-306.5 -38.5q-140 0 -265 52q-69 29 -128 73v-412h-492z" />
    <glyph glyph-name="ydieresis" unicode="&#xff;" horiz-adv-x="2072" 
d="M1036 861l394 482h622l-754 -885v-459h-524v459l-754 885h623zM1118 1434v287h328v-287h-328zM626 1434v287h328v-287h-328z" />
    <glyph glyph-name="gravecomb" unicode="&#x300;" horiz-adv-x="728" 
d="M708 1000l-688 229v328l688 -328v-229z" />
    <glyph glyph-name="acutecomb" unicode="&#x301;" horiz-adv-x="728" 
d="M20 1000v229l688 328v-328z" />
    <glyph glyph-name="uni0302" unicode="&#x302;" horiz-adv-x="860" 
d="M20 1260l410 230l410 -230v-262l-410 197l-410 -197v262z" />
    <glyph glyph-name="tildecomb" unicode="&#x303;" horiz-adv-x="925" 
d="M684 1365v15h221v-150v-16q-10 -108 -101 -171q-98 -61 -207 -26l-270 123q-38 16 -66 1q-17 -9 -19 -30q0 -3 -0.5 -17t-0.5 -32v-31.5v-13.5v-16h-221v150q0 8 1 16q9 108 100 171q98 61 207 26l270 -123q38 -16 67 -1q16 10 18 31q1 2 1 16.5v32v31.5v14z" />
    <glyph glyph-name="uni0304" unicode="&#x304;" horiz-adv-x="794" 
d="M20 998v254h754v-254h-754z" />
    <glyph glyph-name="uni0307" unicode="&#x307;" horiz-adv-x="433" 
d="M20 998v320h393v-320h-393z" />
    <glyph glyph-name="uni0308" unicode="&#x308;" horiz-adv-x="860" 
d="M512 998v287h328v-287h-328zM20 998v287h328v-287h-328z" />
    <glyph glyph-name="uni030A" unicode="&#x30a;" horiz-adv-x="827" 
d="M550 1238v36q0 48 -41 68q-32 16 -96 16q-141 0 -136 -84v-36q0 -48 40 -68q33 -16 96 -16q142 0 137 84zM567 1502q65 -11 119.5 -36.5t87.5 -69t33 -110.5v-60q0 -70 -35.5 -114.5t-93.5 -69.5q-51 -22 -111 -32q-78 -12 -154 -12t-153 12q-66 11 -120 36.5t-87 69
t-33 110.5v60q0 70 35.5 114.5t93.5 69.5q51 22 111 32q77 12 153 12t154 -12z" />
    <glyph glyph-name="uni030C" unicode="&#x30c;" horiz-adv-x="860" 
d="M20 1227v263l410 -197l410 197v-263l-410 -229z" />
    <glyph glyph-name="uni0327" unicode="&#x327;" horiz-adv-x="630" 
d="M406 -99q70 0 110.5 -17.5t61.5 -47.5q20 -30 26 -68t6 -80q0 -55 -12.5 -104t-55.5 -79t-136 -30h-386v174h321q60 0 75 16q15 15 15 50q0 34 -15 50t-75 16h-92h-160h-3l98 218h197l-59 -98h84z" />
    <glyph glyph-name="endash" unicode="&#x2013;" horiz-adv-x="1810" 
d="M1790 869v-393h-1770v393h1770z" />
    <glyph glyph-name="emdash" unicode="&#x2014;" horiz-adv-x="2400" 
d="M2380 869v-393h-2360v393h2360z" />
    <glyph glyph-name="quoteleft" unicode="&#x2018;" horiz-adv-x="564" 
d="M479 1600l-131 -427h196v-393h-524v393l262 427h197z" />
    <glyph glyph-name="quoteright" unicode="&#x2019;" horiz-adv-x="564" 
d="M86 780l131 426h-197v394h524v-394l-262 -426h-196z" />
    <glyph glyph-name="quotesinglbase" unicode="&#x201a;" horiz-adv-x="564" 
d="M86 -430l131 426h-197v394h524v-394l-262 -426h-196z" />
    <glyph glyph-name="quotedblleft" unicode="&#x201c;" horiz-adv-x="1229" 
d="M479 1600l-131 -427h196v-393h-524v393l262 427h197zM1143 1600l-131 -427h196v-393h-524v393l262 427h197z" />
    <glyph glyph-name="quotedblright" unicode="&#x201d;" horiz-adv-x="1224" 
d="M86 780l131 426h-197v394h524v-394l-262 -426h-196zM746 780l131 426h-197v394h524v-394l-262 -426h-196z" />
    <glyph glyph-name="quotedblbase" unicode="&#x201e;" horiz-adv-x="1220" 
d="M741 -430l131 426h-196v394h524v-394l-262 -426h-197zM86 -430l131 426h-197v394h524v-394l-262 -426h-196z" />
    <glyph glyph-name="dagger" unicode="&#x2020;" horiz-adv-x="1745" 
d="M1725 1410v-427l-623 33l33 -1016h-525l33 1016l-623 -33v427l623 -33l-33 393h525l-33 -393z" />
    <glyph glyph-name="daggerdbl" unicode="&#x2021;" horiz-adv-x="1745" 
d="M1725 983l-623 33v-262l623 33v-426l-623 32l33 -393h-525l33 393l-623 -32v426l623 -33v262l-623 -33v427l623 -33l-33 393h525l-33 -393l623 33v-427z" />
    <glyph glyph-name="bullet" unicode="&#x2022;" horiz-adv-x="808" 
d="M569 946q59 -17 109 -48.5t80 -82t30 -122.5v-41q0 -80 -36 -133t-94 -84q-42 -23 -89 -36q-86 -22 -165 -22q-78 0 -164 22q-60 16 -109.5 48t-80 82t-30.5 123v41q0 79 36.5 132t93.5 85q42 23 90 36q86 21 164 21q79 0 165 -21z" />
    <glyph glyph-name="ellipsis" unicode="&#x2026;" horiz-adv-x="2400" 
d="M938 0v393h524v-393h-524zM1856 0v393h524v-393h-524zM20 0v393h524v-393h-524z" />
    <glyph glyph-name="guilsinglleft" unicode="&#x2039;" horiz-adv-x="1056" 
d="M1036 82h-524l-492 590l492 590h524l-492 -590z" />
    <glyph glyph-name="guilsinglright" unicode="&#x203a;" horiz-adv-x="1056" 
d="M20 82l492 590l-492 590h524l492 -590l-492 -590h-524z" />
    <glyph glyph-name="fraction" unicode="&#x2044;" horiz-adv-x="1156" 
d="M20 0l715 1475h401l-716 -1475h-400z" />
    <glyph glyph-name="fraction" unicode="&#x2215;" horiz-adv-x="1156" 
d="M20 0l715 1475h401l-716 -1475h-400z" />
    <glyph glyph-name="franc" unicode="&#x20a3;" horiz-adv-x="1843" 
d="M20 492h229v1278h1574v-426h-1049v-197h918v-393h-918v-262h426v-197h-426v-295h-525v295h-229v197z" />
    <glyph glyph-name="lira" unicode="&#x20a4;" horiz-adv-x="1351" 
d="M1331 426v-426h-1311v426q87 0 150 56t77 141h-227v197h229v163h-229v197h229v131q0 127 62 231t166.5 166t230.5 62h623v-393h-491q-68 0 -116 -48t-48 -116v-33h524v-197h-524v-131q0 -12 -1 -24q-1 -4 -1 -8h526v-197h-574q-53 -116 -149 -197h854z" />
    <glyph glyph-name="peseta" unicode="&#x20a7;" horiz-adv-x="4826" 
d="M1151 724q47 0 81 33.5t34 81.5q0 47 -34 80.5t-81 33.5h-607v-229h607zM3888 832q213 -7 382.5 -22.5t289 -54.5t183 -113t63.5 -199q0 -176 -106.5 -279.5t-311.5 -148.5t-500 -45q-221 0 -392 20.5t-288 72t-177.5 142.5t-60.5 234h534q0 -24 16 -48t59.5 -44t123 -32
t206.5 -12q118 0 190 13t110 33.5t50.5 43t12.5 39.5q0 28 -26 41.5t-109 19.5t-249 10q-482 10 -689.5 99t-207.5 312v3v4h-349v-918h-524v918h-335q7 -40 7 -82v0q0 -141 -68.5 -256t-184 -183.5t-255.5 -68.5h-738v-328h-524v1344h3901l-1 -1q266 -3 458 -48.5
t296.5 -142.5t104.5 -255h-534q0 51 -111.5 82.5t-307.5 31.5q-125 0 -190 -20.5t-88 -49.5t-23 -54q0 -23 21.5 -33.5t87.5 -14.5t194 -8q28 -1 60 -2z" />
    <glyph glyph-name="Euro" unicode="&#x20ac;" horiz-adv-x="1482" 
d="M872 0q-146 0 -254.5 50t-183.5 135.5t-122 194t-69 226.5h-223v197h199q-2 42 -2 82v0q0 40 2 82h-199v197h223q22 119 69 227t122 193.5t183.5 135.5t254.5 50h590v-426h-524q-57 0 -98.5 -24t-71 -65t-47.5 -91h610v-197h-652q-3 -45 -3 -82t3 -82h652v-197h-610
q18 -50 47.5 -90.5t71 -65t98.5 -24.5h524v-426h-590z" />
    <glyph glyph-name="trademark" unicode="&#x2122;" horiz-adv-x="2400" 
d="M20 1117v228h944v-228h-332v-489h-280v489h-332zM2100 628v382l-279 -382h-140l-280 382v-382h-280v717h350l280 -359l280 359h349v-717h-280z" />
    <glyph glyph-name="partialdiff" unicode="&#x2202;" horiz-adv-x="1745" 
d="M1199 538l1 112q-5 1 -11 3q-86 26 -173.5 45t-175.5 15q-26 -1 -51 -4q-104 -11 -157 -47.5t-70 -81.5t-17 -79q0 -106 284 -103q104 0 188 6t133 35t49 99zM1725 538q0 -168 -63 -273.5t-178.5 -163.5t-276.5 -79.5t-356 -21.5q-396 0 -613.5 117t-217.5 327
q0 154 78.5 260t215.5 165.5t316 74.5q35 3 70 5q251 8 498 -55q-13 117 -75 187.5t-147.5 106t-169 47.5t-140 11.5l-56.5 -0.5v327l47.5 -0.5t127 -8.5t178.5 -27t204.5 -55t204.5 -94t178.5 -143t127 -201.5t47.5 -270.5v-235z" />
    <glyph glyph-name="Delta" unicode="&#x2206;" horiz-adv-x="1843" 
d="M526 262h627l-313 564zM1003 1475l820 -1475h-1803l820 1475h163z" />
    <glyph glyph-name="product" unicode="&#x220f;" horiz-adv-x="2400" 
d="M905 0h-524v1180h-361v393h2360v-393h-360v-1180h-525v1180h-590v-1180z" />
    <glyph glyph-name="summation" unicode="&#x2211;" horiz-adv-x="1646" 
d="M20 1377v393h1606v-393h-983l590 -492l-590 -492h983v-393h-1606v393l590 492z" />
    <glyph glyph-name="minus" unicode="&#x2212;" 
d="M1593 869v-393h-1573v393h1573z" />
    <glyph glyph-name="radical" unicode="&#x221a;" horiz-adv-x="2036" 
d="M20 820h473l186 -346l550 1099h787v-393h-488l-594 -1180h-492z" />
    <glyph glyph-name="infinity" unicode="&#x221e;" horiz-adv-x="2400" 
d="M1708 393q109 0 161.5 19t68.5 59t16 106q0 65 -16 105.5t-68.5 59.5t-161.5 19v0q-101 0 -175.5 -44.5t-135.5 -124.5l-12 -15l12 -15q61 -81 135.5 -125t175.5 -44zM1003 562l12 15l-12 15q-61 80 -135.5 124.5t-175.5 44.5v0q-109 0 -161 -19t-68.5 -59.5
t-16.5 -105.5q0 -66 16.5 -106t68.5 -59t161 -19q101 0 175.5 44t135.5 125zM2380 577q0 -118 -21.5 -222.5t-83.5 -184t-178.5 -125t-306.5 -45.5v0q-139 0 -264 61t-212 172l-114 147l-114 -147q-87 -111 -211.5 -172t-264.5 -61q-190 0 -306.5 45.5t-178.5 125t-83.5 184
t-21.5 222.5v0q0 118 21.5 222.5t83.5 184t178.5 125t306.5 45.5q140 0 264.5 -61t211.5 -172l114 -147l114 147q87 111 212 172t264 61v0q190 0 306.5 -45.5t178.5 -125t83.5 -184t21.5 -222.5z" />
    <glyph glyph-name="integral" unicode="&#x222b;" horiz-adv-x="1187" 
d="M381 1294q0 147 41 240t113.5 145.5t168 75t205.5 27t225 3.5h33v-393q-61 0 -151 -8t-123 -33q-19 -17 -39 -44.5t-33.5 -67t-13.5 -93.5v-639q0 -148 -41.5 -241t-114 -145t-168 -74.5t-205.5 -27.5t-225 -4h-33v393q61 0 151 8.5t124 33.5q19 17 38.5 44t33.5 66.5
t14 93.5v640z" />
    <glyph glyph-name="approxequal" unicode="&#x2248;" horiz-adv-x="1810" 
d="M414 842v-22.5t-0.5 -46t-0.5 -45.5v-20h-393v228q0 13 1 26q13 119 102 202.5t221 114.5t272 -7l558 -180q76 -27 143 -9.5t79 81.5v22.5t0.5 46t0.5 45.5v20h393v-228q0 -13 -1 -26q-13 -120 -102 -203t-221 -114t-272 6l-558 181q-76 27 -143 9.5t-79 -81.5zM414 187
v-23t-0.5 -46t-0.5 -46v-20h-393v228q0 13 1 26q13 120 102 203.5t221 114t272 -6.5l558 -181q76 -27 143 -9.5t79 81.5v23t0.5 46t0.5 45.5v19.5h393v-228q0 -13 -1 -25q-13 -120 -102 -203.5t-221 -114.5t-272 7l-558 181q-76 26 -143 9t-79 -81z" />
    <glyph glyph-name="lessequal" unicode="&#x2264;" 
d="M1593 1377v-312l-743 -147l743 -131v-312l-1573 279v311zM1593 361v-361h-1573v361h1573z" />
    <glyph glyph-name="greaterequal" unicode="&#x2265;" 
d="M20 1377l1573 -312v-311l-1573 -279v312l743 131l-743 147v312zM20 361h1573v-361h-1573v361z" />
    <glyph glyph-name="A.alt" horiz-adv-x="2105" 
d="M1364 1344l721 -1344h-590l-442 955l-443 -955h-590l721 1344h623z" />
    <glyph glyph-name="K.alt" horiz-adv-x="1941" 
d="M544 0h-524v1344h524v-1344zM1921 1344l-754 -672l754 -672h-688l-689 672l689 672h688z" />
    </font>
</defs>
</svg>
